<?xml version="1.0" standalone="no"?>
<!DOCTYPE svg PUBLIC "-//W3C//DTD SVG 1.1//EN" "http://www.w3.org/Graphics/SVG/1.1/DTD/svg11.dtd">
<svg xmlns="http://www.w3.org/2000/svg">
<defs >
<font id="GentiumBookBasic" horiz-adv-x="1103" ><font-face
    font-family="Gentium Book Basic"
    units-per-em="2048"
    panose-1="2 0 5 3 6 0 0 2 0 4"
    ascent="1790"
    descent="-580"
    alphabetic="0" />
<glyph unicode=" " glyph-name="space" horiz-adv-x="530" />
<glyph unicode="!" glyph-name="exclam" horiz-adv-x="658" d="M504 133Q504 91 488 59T445 5T382 -28T306 -40Q276 -40 247 -32T196 -7T160 37T146 102Q146 143 162 175T206 230T270 264T345 276Q373 276 401 268T453 243T490 198T504 133ZM394 419Q385 412 371
407T340 397T308 388T280 380L251 401L164 1358Q187 1370 223 1388T299 1424T373 1457T430 1480L483 1445L394 419Z" />
<glyph unicode="&quot;" glyph-name="quotedbl" horiz-adv-x="990" d="M359 834Q351 830 334 826T295 819T255 815T223 813L130 1386Q137 1390 157 1398T204 1417T260 1437T316 1457T362 1472T389 1480L442 1449L359 834ZM777 834Q769 830 752 826T713 819T673
815T641 813L548 1386Q555 1390 575 1398T622 1417T678 1437T734 1457T780 1472T807 1480L860 1449L777 834Z" />
<glyph unicode="#" glyph-name="numbersign" horiz-adv-x="1061" d="M881 981H1037L1062 956Q1060 945 1053 927T1038 889T1023 852T1011 826H837L775 610H931L953 583Q951 573 945 555T931 518T916 481T905 455H731L650 170Q641 163 624 157T588 146L550 136Q531
131 518 127L492 147L580 455H411L329 170Q320 163 304 157T268 146T231 136T199 127L173 147L261 455H89L67 480Q69 490 75 507T89 544T104 582T117 610H305L366 826H198L173 850Q175 861 182 879T197 916T212 953T224 981H411L488 1251Q499 1259 516 1264T552
1274T588 1283T616 1292L645 1270L562 981H730L807 1251Q818 1259 835 1264T871 1274T907 1283T937 1292L964 1270L881 981ZM455 610H624L685 826H517L455 610Z" />
<glyph unicode="$" glyph-name="dollar" horiz-adv-x="1061" d="M305 948Q305 919 316 896T349 853T399 817T462 787V1083Q391 1074 348 1037T305 948ZM747 314Q747 351 736 380T703 433T654 475T592 510V145Q623 150 651 162T700 195T734 245T747 314ZM592 -123Q574
-139 549 -153T499 -174L462 -142V-9Q421 -7 373 2T274 28T175 67T82 116Q77 119 75 138T73 186T73 250T76 318T83 382T92 430L175 426Q199 375 227 330T290 248T367 185T462 148V561Q394 585 326 611T202 674T113 766T78 901Q78 944 96 994T159 1089T278 1167T462
1210V1336Q476 1344 487 1351T508 1364T530 1375T556 1384L592 1352V1212Q647 1208 701 1198T803 1172T886 1140T941 1104Q945 1099 943 1082T935 1041T919 989T898 936T877 891T857 863L778 871Q747 949 703 1000T592 1073V739Q661 715 730 687T856 616T947 514T982
367Q982 307 961 247T894 136T773 48T592 -3V-123Z" />
<glyph unicode="%" glyph-name="percent" horiz-adv-x="1517" d="M1246 290Q1246 438 1215 508T1132 579Q1106 579 1087 566T1056 524T1037 448T1031 333Q1031 184 1059 113T1145 42Q1172 42 1191 55T1222 97T1240 174T1246 290ZM1471 310Q1471 240 1447 178T1378
70T1271 -4T1132 -31Q1056 -31 996 -4T893 69T829 178T806 310Q806 380 828 442T894 550T1001 624T1145 652Q1224 652 1284 625T1386 552T1449 443T1471 310ZM379 3Q367 -3 347 -7T305 -16T261 -23T226 -30L201 0L1133 1203Q1143 1207 1163 1211T1206 1220T1250
1229T1282 1235L1307 1207L379 3ZM486 877Q486 1025 455 1095T372 1166Q346 1166 327 1153T296 1111T277 1035T271 920Q271 771 299 700T385 629Q412 629 431 642T462 684T480 761T486 877ZM711 897Q711 827 687 765T618 657T511 583T372 556Q296 556 236 583T133
656T69 765T46 897Q46 967 68 1029T134 1137T241 1211T385 1239Q464 1239 524 1212T626 1139T689 1030T711 897Z" />
<glyph unicode="&amp;" glyph-name="ampersand" horiz-adv-x="1436" d="M514 1130Q514 1079 527 1026T565 916Q605 942 633 973T677 1038T701 1106T709 1171Q709 1206 700 1232T677 1277T645 1304T608 1313Q583 1313 566 1299T537 1261T520 1203T514 1130ZM588
124Q636 124 682 138T771 176Q726 219 680 268T588 371T499 484T419 603Q380 547 366 492T352 373Q352 303 373 256T429 179T505 137T588 124ZM1436 748Q1424 733 1409 713T1377 672T1345 635T1317 609Q1280 626 1240 642T1165 660Q1186 634 1192 604T1198 543Q1198
477 1168 405T1084 261Q1116 232 1148 206Q1204 159 1263 148T1370 148L1389 65Q1346 46 1295 29T1198 -2T1117 -22T1071 -30Q1045 -30 996 -2T882 79Q803 29 711 0T518 -30Q409 -30 324 -6T180 67T91 186T60 352Q60 455 124 558T331 768Q296 846 277 922T257 1073Q257
1154 289 1223T378 1342T509 1421T671 1450Q751 1450 809 1430T904 1375T960 1297T978 1204Q978 1152 949 1097T872 988T766 887T648 802L631 791Q664 736 703 682T785 575T873 472T964 376Q980 408 988 439T997 502Q997 544 985 576T951 630T903 663T847 675L815
713Q820 719 831 731T857 756T885 779T909 794H1403L1436 748Z" />
<glyph unicode="&apos;" glyph-name="quotesingle" horiz-adv-x="572" d="M359 834Q351 830 334 826T295 819T255 815T223 813L130 1386Q137 1390 157 1398T204 1417T260 1437T316 1457T362 1472T389 1480L442 1449L359 834Z" />
<glyph unicode="(" glyph-name="parenleft" horiz-adv-x="689" d="M608 -315Q351 -173 226 66T101 623Q101 787 136 933T236 1203T396 1427T608 1600L670 1515Q612 1453 562 1371T473 1182T413 943T391 651Q391 357 461 135T670 -230L608 -315Z" />
<glyph unicode=")" glyph-name="parenright" horiz-adv-x="689" d="M590 661Q590 497 555 351T455 81T295 -143T83 -316L21 -231Q79 -169 129 -87T218 102T278 340T300 633Q300 927 230 1149T21 1514L83 1599Q339 1457 464 1218T590 661Z" />
<glyph unicode="*" glyph-name="asterisk" horiz-adv-x="904" d="M505 1230L707 1410Q717 1404 738 1388T783 1353T826 1317T854 1291L842 1231L563 1136L819 1051Q818 1039 815 1013T807 957T797 901T789 864L731 845L510 1038L564 775Q553 769 528 759L475 738Q448
727 423 719T387 707L341 748L398 1037L197 858Q187 864 166 880T121 915T78 951T50 977L62 1037L342 1132L85 1217Q86 1229 89 1255T97 1311T107 1367T115 1404L173 1423L394 1229L340 1493Q351 1499 376 1509L428 1530Q456 1541 481 1549T517 1561L563 1520L505
1230Z" />
<glyph unicode="+" glyph-name="plus" horiz-adv-x="870" d="M515 221Q505 216 489 210T456 198T423 187T395 180L360 212V485H85L50 519Q53 530 59 546T73 580T88 614T101 640H360V906Q369 909 385 914T419 926T453 937T481 945L515 912V640H785L820 606Q817
595 810 578T795 543T780 509T769 485H515V221Z" />
<glyph unicode="," glyph-name="comma" horiz-adv-x="579" d="M510 70Q510 12 485 -55T416 -186T316 -308T196 -405L121 -350Q177 -285 211 -211T246 -50Q246 -28 236 -6T208 35T163 63T104 72L88 159Q94 167 114 178T164 201T228 226T296 248T360 264T409 269Q433
258 452 242T483 202T503 146T510 70Z" />
<glyph unicode="-" glyph-name="hyphen" horiz-adv-x="740" d="M690 556Q687 545 680 528T665 493T650 459T639 435H85L50 469Q53 480 59 496T73 530T88 564T101 590H655L690 556Z" />
<glyph unicode="." glyph-name="period" horiz-adv-x="579" d="M489 133Q489 91 473 59T430 5T367 -28T291 -40Q261 -40 232 -32T181 -7T145 37T131 102Q131 143 147 175T191 230T255 264T330 276Q358 276 386 268T438 243T475 198T489 133Z" />
<glyph unicode="/" glyph-name="slash" horiz-adv-x="980" d="M252 -274Q242 -281 218 -290T167 -307T115 -323T77 -335L30 -300L731 1541Q744 1550 767 1558T816 1575T865 1589T903 1600L950 1568L252 -274Z" />
<glyph unicode="0" glyph-name="zero" horiz-adv-x="1061" d="M711 565Q711 702 698 802T659 969T599 1067T521 1100Q477 1100 445 1076T392 998T361 857T350 645Q350 370 397 238T540 105Q585 105 617 129T670 208T701 350T711 565ZM1005 602Q1005 473 970 358T870
157T716 21T521 -30Q414 -30 329 20T182 157T89 358T56 602Q56 731 89 846T184 1047T337 1184T540 1235Q650 1235 736 1185T882 1049T973 848T1005 602Z" />
<glyph unicode="1" glyph-name="one" horiz-adv-x="1061" d="M150 0V93Q228 102 280 113T363 137T407 160T420 183V900Q420 940 417 962T402 998Q396 1004 381 1008T336 1011T262 1004T150 984L119 1075Q148 1080 191 1092T284 1119T387 1153T488 1188T577 1220T643
1245L690 1200V183Q690 173 701 162T740 138T816 114T940 93V0H150Z" />
<glyph unicode="2" glyph-name="two" horiz-adv-x="1061" d="M941 0H107L78 74Q194 211 282 317T435 506T543 651T611 763T647 850T658 924Q658 965 650 1000T625 1060T581 1100T517 1115Q476 1115 448 1098T405 1053T386 988T390 914Q373 905 341 894T272 872T200
855T142 845L105 925Q105 959 122 995T170 1066T246 1131T343 1185T458 1221T585 1235Q668 1235 734 1219T846 1173T918 1097T943 992Q943 947 931 903T891 808T819 700T712 567T564 401T371 191H764Q781 191 794 200T818 223T836 256T849 295Q861 341 866 399L956
377L941 0Z" />
<glyph unicode="3" glyph-name="three" horiz-adv-x="1061" d="M945 381Q945 297 910 222T813 91T665 3T476 -30Q437 -30 387 -20T283 11T176 64T78 139L122 246Q213 178 290 149T443 120Q486 120 524 133T592 175T638 249T655 358Q655 425 634 470T582 543T515
581T450 593H426Q417 593 408 592T388 590T362 586L343 686Q427 708 477 739T554 804T589 874T598 940Q598 974 592 1006T572 1062T535 1100T476 1115Q454 1115 434 1103T401 1069T383 1017T390 953Q368 940 338 927T274 903T206 885T141 874L105 945Q105 987 135
1037T222 1132T357 1205T533 1235Q630 1235 697 1211T807 1148T869 1059T888 958Q888 920 873 881T829 805T761 741T675 698Q738 692 788 665T873 594T926 497T945 381Z" />
<glyph unicode="4" glyph-name="four" horiz-adv-x="1061" d="M565 960L263 480H565V960ZM984 450Q973 434 959 417T930 383T901 353T875 330H825V144Q825 136 831 130T853 116T896 100T964 83V0H355V83Q420 94 461 103T525 121T556 138T565 155V330H98L55 373L531
1164Q556 1172 588 1182T655 1204T721 1225T778 1245L825 1200V480H958L984 450Z" />
<glyph unicode="5" glyph-name="five" horiz-adv-x="1061" d="M946 410Q946 323 920 244T836 103T691 6T480 -30Q434 -30 382 -20T276 12T172 63T78 134L133 231Q186 194 232 171T319 134T394 115T458 110Q503 110 542 129T612 181T659 262T676 367Q676 435 658
486T609 572T535 623T443 640Q397 640 361 634T294 615T237 587T184 550L137 583Q143 619 151 669T167 777T184 895T200 1013T212 1120T219 1205H775Q804 1205 826 1207T864 1214Q882 1218 896 1223L935 1184Q924 1168 905 1141T864 1087T823 1037T791 1005H344Q342
976 338 942T329 873T318 807T308 754Q354 776 409 788T533 800Q637 800 714 767T843 679T920 554T946 410Z" />
<glyph unicode="6" glyph-name="six" horiz-adv-x="1061" d="M560 640Q520 640 473 612T380 536Q380 418 396 336T440 203T505 128T585 105Q625 105 651 125T693 180T715 258T721 348Q721 442 708 499T672 587T620 629T560 640ZM1001 412Q1001 365 989 314T952
214T892 121T807 44T698 -10T566 -30Q467 -30 380 6T229 109T127 267T90 473Q90 614 140 743T288 976T532 1151T868 1249L897 1150Q775 1124 687 1079T539 974T444 842T394 691Q455 739 516 764T631 790Q718 790 786 762T902 683T975 564T1001 412Z" />
<glyph unicode="7" glyph-name="seven" horiz-adv-x="1061" d="M985 1167Q939 1059 895 950T809 735T730 529T662 342T605 181T562 54Q544 42 514 30T448 6T379 -14T320 -30L269 13Q327 115 376 204T467 376T548 534T621 687T691 842T763 1005H319Q304 1005 287
1001T251 981T212 931T170 840L94 868Q96 883 100 910T108 969T118 1037T128 1105T138 1163T147 1205H952L985 1167Z" />
<glyph unicode="8" glyph-name="eight" horiz-adv-x="1061" d="M385 950Q385 914 400 887T443 838T506 798T583 762Q658 851 657 938Q657 990 644 1023T611 1076T564 1103T511 1111Q481 1111 458 1099T419 1064T394 1013T385 950ZM697 309Q697 364 680 405T632
476T562 530T478 573Q422 514 393 454T364 315Q364 263 380 223T421 156T478 114T540 100Q576 100 605 116T655 161T686 227T697 309ZM987 352Q987 274 951 205T850 84T699 1T511 -30Q403 -30 321 -4T185 66T102 166T74 285Q74 336 94 384T151 477T239 559T351
628Q306 649 265 673T193 731T144 809T125 915Q125 984 157 1043T246 1144T379 1211T542 1235Q643 1235 717 1215T840 1160T913 1076T937 969Q937 930 920 895T874 828T804 765T717 705Q769 681 818 651T904 580T964 483T987 352Z" />
<glyph unicode="9" glyph-name="nine" horiz-adv-x="1061" d="M521 575Q574 575 618 600T700 667Q698 806 682 891T642 1022T588 1084T525 1100Q447 1100 404 1038T360 856Q360 775 377 721T419 634T472 589T521 575ZM990 731Q990 579 941 447T794 214T550 45T210
-43L182 56Q323 90 417 137T569 242T656 369T694 516Q643 469 581 442T448 415Q357 415 289 446T174 530T104 651T80 795Q80 871 114 949T209 1090T356 1194T546 1235Q646 1235 727 1206T867 1116T958 959T990 731Z" />
<glyph unicode=":" glyph-name="colon" horiz-adv-x="579" d="M489 133Q489 91 473 59T430 5T367 -28T291 -40Q261 -40 232 -32T181 -7T145 37T131 102Q131 143 147 175T191 230T255 264T330 276Q358 276 386 268T438 243T475 198T489 133ZM489 817Q489 775 473
743T430 689T367 656T291 644Q261 644 232 652T181 677T145 721T131 786Q131 827 147 859T191 914T255 948T330 960Q358 960 386 952T438 927T475 882T489 817Z" />
<glyph unicode=";" glyph-name="semicolon" horiz-adv-x="579" d="M510 70Q510 12 485 -55T416 -186T316 -308T196 -405L121 -350Q177 -285 211 -211T246 -50Q246 -28 236 -6T208 35T163 63T104 72L88 159Q94 167 114 178T164 201T228 226T296 248T360 264T409
269Q433 258 452 242T483 202T503 146T510 70ZM489 817Q489 775 473 743T430 689T367 656T291 644Q261 644 232 652T181 677T145 721T131 786Q131 827 147 859T191 914T255 948T330 960Q358 960 386 952T438 927T475 882T489 817Z" />
<glyph unicode="&lt;" glyph-name="less" horiz-adv-x="940" d="M890 336Q879 326 866 313T838 285T807 258T776 236L85 480L50 525Q50 528 51 529Q51 531 51 531T52 534L54 540L56 549L60 563L64 574L68 589L72 601Q73 606 77 616Q77 618 78 619L80 626Q81 627
81 629L86 642L91 654L855 927L890 892Q887 881 882 862T871 822T860 782T851 754L333 568L863 382L890 336Z" />
<glyph unicode="=" glyph-name="equal" horiz-adv-x="940" d="M890 456Q887 445 880 428T865 393T850 359T839 335H85L50 369Q53 380 59 396T73 430T88 464T101 490H855L890 456ZM890 756Q887 745 880 728T865 693T850 659T839 635H85L50 669Q53 680 59 696T73
730T88 764T101 790H855L890 756Z" />
<glyph unicode="&gt;" glyph-name="greater" horiz-adv-x="940" d="M890 638Q883 609 871 572T849 509L85 236L50 271Q53 281 58 300T69 341T80 381T89 409L607 594L77 781L50 827Q61 837 74 850T102 878T133 905T164 927L855 683L890 638Z" />
<glyph unicode="?" glyph-name="question" horiz-adv-x="947" d="M886 1165Q886 1090 860 1028T794 912T708 810T621 715T552 619T519 515L513 419Q494 405 465 396T407 378L372 409L364 515Q361 572 376 626T417 731T473 832T530 930T574 1025T592 1120Q592 1243
557 1298T464 1354Q443 1354 423 1343T388 1309T363 1256T354 1186Q354 1172 357 1152T366 1118Q350 1110 315 1099T239 1078T160 1060T99 1050L62 1090Q60 1098 60 1116V1143Q60 1213 98 1274T202 1382T352 1454T532 1480Q617 1480 683 1457T794 1393T862 1293T886
1165ZM631 133Q631 91 615 59T572 5T509 -28T433 -40Q403 -40 374 -32T323 -7T287 37T273 102Q273 143 289 175T333 230T397 264T472 276Q500 276 528 268T580 243T617 198T631 133Z" />
<glyph unicode="@" glyph-name="at" horiz-adv-x="1843" d="M1054 731Q1034 772 1009 796T938 820Q858 820 819 736T780 465Q780 380 792 325T823 238T867 193T915 180Q934 180 950 184T981 201T1014 235T1054 290V731ZM1753 579Q1753 495 1733 417T1677 272T1593
149T1487 54T1366 -8T1237 -30Q1205 -30 1178 -23T1128 1T1088 48T1060 122Q1019 76 989 47T931 0T874 -23T804 -30Q753 -30 701 -4T606 79T537 223T510 434Q510 499 523 563T561 685T624 794T711 881T819 939T949 960Q972 960 992 957T1033 944T1075 916T1119
869Q1151 879 1177 889T1228 909T1275 932T1323 960L1354 930Q1345 893 1339 853Q1333 819 1329 777T1324 693V285Q1324 259 1325 240T1333 207T1350 186T1382 179Q1407 179 1434 199T1483 261T1519 365T1533 512Q1533 684 1492 810T1375 1019T1192 1142T955 1183Q802
1183 687 1131T495 989T379 779T340 524Q340 332 391 189T532 -48T742 -188T1003 -235Q1102 -235 1187 -218T1342 -174T1462 -118T1543 -62L1596 -159Q1560 -201 1503 -247T1366 -333T1183 -399T954 -425Q763 -425 604 -365T331 -191T154 88T90 465Q90 588 121
703T211 919T351 1103T533 1247T750 1340T994 1373Q1162 1373 1301 1325T1541 1179T1697 932T1753 579Z" />
<glyph unicode="A" glyph-name="A" horiz-adv-x="1309" d="M743 555L582 1003L439 555H743ZM396 425L305 151Q295 120 328 106T444 83V0H0V83Q68 95 103 108T148 151L490 1197Q517 1220 549 1238T616 1272T683 1298T747 1317L1167 151Q1172 137 1179 126T1200
107T1235 93T1288 83V0H766V83Q843 87 870 102T887 151L789 425H396Z" />
<glyph unicode="B" glyph-name="B" horiz-adv-x="1266" d="M483 1176Q476 1176 470 1176T455 1175V745H469Q564 745 623 764T714 814T758 887T770 971Q770 1021 756 1059T709 1123T620 1162T483 1176ZM580 635Q535 635 508 631T455 622V134Q455 128 458 121Q486
109 516 105T587 100Q731 100 801 164T872 342Q872 397 859 449T813 543T724 610T580 635ZM1166 356Q1166 271 1130 203T1025 86T856 12T629 -14Q607 -14 574 -14T501 -12T418 -10T332 -7Q233 -4 123 0H40V83Q108 97 141 113T175 144V1156Q136 1152 102 1148T40
1138L26 1230Q72 1241 136 1251T272 1270T415 1284T549 1290Q668 1290 762 1272T921 1218T1020 1133T1055 1020Q1055 912 996 835T815 723Q894 711 958 678T1069 597T1140 487T1166 356Z" />
<glyph unicode="C" glyph-name="C" horiz-adv-x="1158" d="M1088 211Q960 82 835 26T591 -30Q487 -30 390 12T217 133T96 326T50 586Q50 746 99 876T235 1098T440 1241T696 1290Q750 1290 805 1282T910 1261T1001 1229T1069 1190Q1073 1187 1069 1170T1054 1129T1031
1076T1005 1021T979 975T959 947L884 963Q834 1064 770 1107T632 1150Q581 1150 528 1126T432 1042T362 881T335 623Q335 497 367 408T450 261T565 177T693 150Q720 150 757 155T837 176T930 217T1031 286Q1036 282 1044 271T1061 248T1077 225T1088 211Z" />
<glyph unicode="D" glyph-name="D" horiz-adv-x="1334" d="M1253 676Q1253 551 1228 453T1158 279T1054 151T926 65T784 16T639 0H40V83Q108 97 141 113T175 144V1147L40 1128L26 1230Q77 1242 148 1253T296 1272T452 1285T598 1290Q756 1290 878 1249T1083 1128T1210
935T1253 676ZM523 1176Q507 1176 490 1176T455 1174V190Q455 173 457 159T472 135T515 120T597 114Q651 114 713 143T829 235T917 397T953 637Q953 904 844 1040T523 1176Z" />
<glyph unicode="E" glyph-name="E" horiz-adv-x="1096" d="M1054 324Q1050 281 1045 231T1034 134T1023 51T1013 0H40V83Q108 97 141 113T175 144V1115Q175 1127 144 1145T40 1177V1260H946L989 1225Q987 1199 983 1157T973 1071T961 988T948 930H863Q858 1023
838 1076T781 1130H455V735H850L886 697Q878 683 867 664T843 626T818 590T794 566Q779 581 762 591T722 608T669 618T596 621H455V194Q455 179 462 168T491 148T553 135T659 130H748Q794 130 826 142T884 182T929 251T971 352L1054 324Z" />
<glyph unicode="F" glyph-name="F" horiz-adv-x="1059" d="M40 0V83Q108 97 141 113T175 144V1115Q175 1127 144 1145T40 1177V1260H956L997 1225Q996 1199 992 1157T983 1071T971 988T958 930H871Q868 1023 848 1076T789 1130H455V735H819L858 697Q849 679 837
660T812 622T787 589T764 566Q749 581 732 591T693 608T640 618T567 621H455V144Q455 138 462 131T488 117T539 101T620 83V0H40Z" />
<glyph unicode="G" glyph-name="G" horiz-adv-x="1244" d="M1112 1188Q1117 1184 1113 1168T1098 1127T1074 1076T1046 1023T1018 979T996 951L923 967Q890 1021 857 1058T789 1117T717 1150T638 1160Q613 1160 581 1150T515 1117T449 1055T392 958T351 820T335
637Q335 505 364 411T442 257T554 169T686 140Q734 140 771 148T840 170V465Q840 476 838 486T822 507T779 527T694 547V630H1205V547Q1176 540 1158 531T1129 511T1114 489T1110 465V174Q1036 113 970 74T846 11T735 -21T638 -30Q564 -30 492 -14T354 36T233 121T137
240T73 393T50 582Q50 748 103 879T251 1102T475 1242T757 1290Q790 1290 837 1283T935 1263T1032 1231T1112 1188Z" />
<glyph unicode="H" glyph-name="H" horiz-adv-x="1419" d="M40 0V83Q108 97 141 113T175 144V1115Q175 1127 144 1145T40 1177V1260H590V1177Q522 1163 489 1146T455 1115V725H945V1115Q945 1127 914 1145T810 1177V1260H1360V1177Q1292 1163 1259 1146T1225 1115V144Q1225
132 1256 115T1360 83V0H810V83Q878 97 911 113T945 144V595H455V144Q455 132 486 115T590 83V0H40Z" />
<glyph unicode="I" glyph-name="I" horiz-adv-x="690" d="M60 0V83Q128 97 161 113T195 144V1115Q195 1127 164 1145T60 1177V1260H610V1177Q542 1163 509 1146T475 1115V144Q475 132 506 115T610 83V0H60Z" />
<glyph unicode="J" glyph-name="J" horiz-adv-x="705" d="M645 1177Q577 1163 544 1146T510 1115V175Q510 68 486 -10T425 -147T344 -245T261 -318Q234 -340 201 -360T130 -395T53 -420T-25 -430Q-74 -430 -121 -419T-206 -393T-267 -360T-290 -330Q-290 -322
-279 -307T-250 -272T-211 -233T-169 -196T-131 -166T-104 -150Q-48 -202 4 -224T94 -247Q120 -247 144 -237T188 -190T218 -84T230 103V1115Q230 1121 224 1128T198 1143T142 1159T45 1177V1260H645V1177Z" />
<glyph unicode="K" glyph-name="K" horiz-adv-x="1294" d="M40 0V83Q108 97 141 113T175 144V1115Q175 1127 144 1145T40 1177V1260H590V1177Q522 1163 489 1146T455 1115V664L814 1088Q837 1115 847 1131T854 1156T830 1169T770 1177V1260H1230V1177Q1198 1173
1177 1169T1139 1159T1109 1142T1080 1115L654 677L1135 177Q1151 160 1167 152T1201 139T1240 136T1287 140L1294 57Q1265 48 1227 36T1151 12T1077 -6T1018 -14Q989 -14 967 -5T924 29L455 620V144Q455 132 486 115T590 83V0H40Z" />
<glyph unicode="L" glyph-name="L" horiz-adv-x="1065" d="M1044 324Q1040 281 1035 231T1024 134T1013 51T1003 0H40V83Q108 97 141 113T175 144V1115Q175 1127 144 1145T40 1177V1260H590V1177Q522 1163 489 1146T455 1115V204Q455 186 463 173T493 150T550
135T641 130H744Q790 130 821 142T877 182T920 251T961 352L1044 324Z" />
<glyph unicode="M" glyph-name="M" horiz-adv-x="1761" d="M1660 1177Q1636 1177 1604 1171T1535 1152L1545 144Q1545 132 1581 115T1690 83V0H1145V83Q1213 97 1251 113T1290 144L1282 917L863 0H754L348 915L340 144Q340 132 371 115T475 83V0H50V83Q119 97
152 113T185 144L195 1144Q160 1163 125 1170T60 1177V1260H426Q436 1260 444 1257T461 1245T478 1220T500 1176L859 363L1230 1176Q1243 1206 1252 1222T1270 1247T1287 1258T1304 1260H1660V1177Z" />
<glyph unicode="N" glyph-name="N" horiz-adv-x="1369" d="M40 0V83Q113 92 144 111T175 144V1102Q143 1132 109 1152T40 1177V1260H342Q357 1260 366 1258T386 1247T407 1224T438 1182L1035 353V1115Q1035 1121 1029 1129T1008 1146T966 1163T900 1177V1260H1330V1177Q1258
1167 1227 1148T1195 1115V-30Q1140 -26 1096 -15T1017 13T957 49T916 91L335 895V144Q335 138 341 130T364 113T405 96T470 83V0H40Z" />
<glyph unicode="O" glyph-name="O" horiz-adv-x="1289" d="M933 629Q933 732 910 827T843 995T739 1111T604 1155Q538 1155 488 1121T403 1020T352 859T335 641Q335 529 360 432T428 264T530 151T654 110Q714 110 765 141T854 237T912 399T933 629ZM1218 647Q1218
556 1196 471T1133 311T1036 173T912 65T766 -5T605 -30Q477 -30 374 23T199 165T89 370T50 612Q50 748 94 871T220 1087T413 1235T663 1290Q798 1290 901 1236T1075 1091T1182 885T1218 647Z" />
<glyph unicode="P" glyph-name="P" horiz-adv-x="1191" d="M40 0V83Q108 97 141 113T175 144V1148Q99 1139 40 1128L26 1230Q82 1243 151 1254T295 1273T446 1285T590 1290Q709 1290 807 1267T975 1199T1083 1088T1122 936Q1122 832 1081 753T977 621T838 542T693
515Q647 515 602 522T522 545L489 660Q530 641 559 636T623 630Q665 630 704 645T772 692T819 774T837 895Q837 962 816 1014T755 1103T659 1157T533 1176Q515 1176 495 1176T455 1174V144Q455 138 461 131T485 116T535 100T620 83V0H40Z" />
<glyph unicode="Q" glyph-name="Q" horiz-adv-x="1289" d="M933 629Q933 732 910 827T843 995T739 1111T604 1155Q538 1155 488 1121T403 1020T352 859T335 641Q335 529 360 432T428 264T530 151T654 110Q714 110 765 141T854 237T912 399T933 629ZM1462 -127Q1438
-171 1410 -208T1354 -274T1302 -319T1262 -335Q1214 -335 1165 -319T1067 -277T967 -218T867 -150T767 -83T667 -26Q652 -28 637 -29T605 -30Q477 -30 374 23T199 165T89 370T50 612Q50 748 94 871T220 1087T413 1235T663 1290Q798 1290 901 1236T1075 1091T1182
885T1218 647Q1218 547 1191 454T1115 280T999 135T852 30Q912 11 967 -15T1073 -64T1172 -103T1268 -120Q1280 -120 1292 -118T1319 -108T1354 -88T1405 -52L1462 -127Z" />
<glyph unicode="R" glyph-name="R" horiz-adv-x="1269" d="M40 0V83Q108 97 141 113T175 144V1147L40 1128L26 1230Q135 1253 268 1271T549 1290Q691 1290 790 1267T950 1203T1039 1107T1067 987Q1067 919 1047 862T990 758T902 676T788 618L1108 199Q1124 178
1137 165T1167 146T1206 138T1263 140L1279 57Q1246 46 1202 34T1114 11T1032 -7T975 -14Q946 -14 919 2T877 41L595 581Q587 580 578 580H561Q535 580 509 582T455 591V144Q455 132 486 115T590 83V0H40ZM502 1176Q491 1176 480 1176T455 1175V711Q482 706 502
705T544 704Q608 704 653 721T726 771T768 850T782 956Q782 999 771 1039T728 1109T642 1158T502 1176Z" />
<glyph unicode="S" glyph-name="S" horiz-adv-x="1075" d="M995 377Q995 332 981 285T940 193T870 107T770 36T640 -12T480 -30Q443 -30 394 -23T294 -4T195 27T111 68Q106 70 103 88T99 135T98 198T101 269T109 341T121 404L202 399Q225 340 257 289T330 201T418
142T516 120Q561 120 601 131T673 164T722 221T740 304Q740 365 713 409T642 488T540 551T424 607T307 666T206 737T134 831T107 957Q107 988 119 1025T157 1099T222 1170T314 1231T435 1274T586 1290Q643 1290 697 1283T797 1264T879 1235T933 1198Q938 1194 936
1179T926 1142T909 1097T887 1050T864 1010T845 985L769 991Q749 1042 721 1076T662 1132T598 1161T537 1170Q489 1170 455 1158T399 1126T367 1079T357 1024Q357 977 384 940T457 872T559 812L676 754Q736 724 793 689T895 610T967 508T995 377Z" />
<glyph unicode="T" glyph-name="T" horiz-adv-x="1208" d="M297 0V83Q343 92 373 102T420 121T444 139T451 155V1130H212Q197 1130 183 1118T155 1079T123 1010T83 910L0 939Q2 968 7 1012T18 1102T31 1191T43 1260H1133L1173 1225Q1172 1199 1168 1160T1158 1079T1146
994T1133 920H1048Q1038 966 1032 1005T1018 1071T998 1114T965 1130H731V155Q731 149 738 141T762 122T809 102T885 83V0H297Z" />
<glyph unicode="U" glyph-name="U" horiz-adv-x="1379" d="M1325 1177Q1257 1163 1224 1146T1190 1115V524Q1190 393 1152 290T1046 116T886 8T686 -30Q583 -30 490 -2T327 85T216 233T175 444V1115Q175 1127 144 1145T40 1177V1260H590V1177Q522 1163 489 1146T455
1115V514Q455 418 470 345T519 224T611 150T755 125Q826 125 873 156T949 239T988 360T1000 503V1115Q1000 1127 969 1145T865 1177V1260H1325V1177Z" />
<glyph unicode="V" glyph-name="V" horiz-adv-x="1371" d="M1340 1177Q1272 1164 1234 1152T1185 1111L812 89Q804 67 781 48T728 14T664 -12T602 -30L142 1111Q131 1137 102 1153T10 1177V1260H545V1177Q505 1174 480 1169T441 1157T424 1138T427 1113L742 313L1026
1111Q1031 1126 1028 1136T1011 1153T971 1166T904 1177V1260H1340V1177Z" />
<glyph unicode="W" glyph-name="W" horiz-adv-x="1741" d="M1742 1177Q1698 1168 1669 1160T1623 1145T1599 1130T1590 1115L1361 59Q1356 38 1338 23T1297 -3T1251 -20T1212 -30L866 854L579 59Q572 38 554 23T512 -2T463 -19T418 -30L158 1107Q153 1132 122
1148T20 1177V1260H529V1177Q480 1172 454 1165T415 1148T402 1129T403 1107L565 430L846 1260H961L1290 430L1442 1115Q1444 1127 1433 1136T1401 1152T1351 1165T1288 1177V1260H1742V1177Z" />
<glyph unicode="X" glyph-name="X" horiz-adv-x="1300" d="M718 0V83Q762 87 789 93T828 109T839 133T823 167L601 490L382 167Q367 145 362 131T366 107T400 92T471 83V0H21V83Q86 88 131 107T203 167L509 623L187 1093Q172 1115 158 1129T127 1152T87 1166T31
1177V1260H602V1177Q517 1169 491 1153T495 1093L689 810L868 1093Q882 1116 886 1130T882 1154T847 1169T777 1177V1260H1230V1177Q1194 1173 1166 1167T1116 1152T1077 1128T1047 1093L780 678L1131 167Q1146 146 1160 132T1190 108T1228 93T1279 83V0H718Z"
/>
<glyph unicode="Y" glyph-name="Y" horiz-adv-x="1267" d="M340 0V83Q385 92 415 102T462 121T487 139T494 155V527Q458 606 414 690T325 852T237 997T158 1111Q149 1122 140 1130T114 1144T72 1153T4 1156L0 1239Q29 1243 68 1248T148 1258T223 1266T279 1270Q308
1270 339 1257T387 1221Q424 1171 464 1107T544 972T624 826T699 678L921 1111Q936 1137 912 1152T810 1177V1260H1236V1177Q1202 1171 1178 1165T1136 1151T1108 1134T1090 1111L774 515V155Q774 149 781 141T805 122T853 102T930 83V0H340Z" />
<glyph unicode="Z" glyph-name="Z" horiz-adv-x="1131" d="M1061 373Q1059 341 1058 290T1055 184T1052 79T1049 0H88L49 55L710 1120H341Q325 1120 305 1101T264 1049T227 970T198 873L101 895L140 1276Q167 1270 189 1267T233 1262T278 1260H1016L1051 1207L396
140H829Q850 140 867 157T899 207T931 287T966 397L1061 373Z" />
<glyph unicode="[" glyph-name="bracketleft" horiz-adv-x="711" d="M691 -219Q689 -229 684 -245T673 -278T662 -310T652 -335H120V1600H646L689 1564Q687 1552 682 1534T672 1498T661 1466T652 1445H380V-180H646L691 -219Z" />
<glyph unicode="\" glyph-name="backslash" horiz-adv-x="960" d="M880 -335Q868 -331 844 -324T795 -308T747 -290T716 -274L35 1568L82 1600Q97 1596 119 1590T164 1575T209 1559T245 1541L925 -300L880 -335Z" />
<glyph unicode="]" glyph-name="bracketright" horiz-adv-x="711" d="M65 -335L22 -299Q24 -287 29 -269T39 -233T50 -201T59 -180H330V1445H65L20 1484Q22 1494 27 1510T38 1543T49 1575T59 1600H590V-335H65Z" />
<glyph unicode="^" glyph-name="asciicircum" horiz-adv-x="1008" d="M907 635Q882 612 859 597T801 565L764 592L481 1315L231 635Q220 625 206 615T177 595T148 578T123 565L100 592L422 1462Q434 1474 451 1486T487 1511T523 1533T555 1550L907 635Z" />
<glyph unicode="_" glyph-name="underscore" horiz-adv-x="1000" d="M950 -164Q947 -175 940 -192T925 -227T910 -261T899 -285H85L50 -251Q53 -240 59 -224T73 -190T88 -156T101 -130H915L950 -164Z" />
<glyph unicode="`" glyph-name="grave" horiz-adv-x="653" d="M456 1088Q450 1082 437 1075T410 1060T383 1046T360 1037L-32 1414L0 1475Q6 1477 24 1480T68 1489T120 1499T173 1508T218 1515L246 1519L456 1088Z" />
<glyph unicode="a" glyph-name="a" horiz-adv-x="1050" d="M432 160Q447 160 465 163T505 176T557 206T623 257V466Q570 457 534 449T472 433T431 414T402 392Q376 366 360 338T344 269Q344 237 353 216T375 183T403 165T432 160ZM1046 122Q1004 93 956 66T862
17T779 -17T722 -30Q684 -30 657 11T624 125Q579 80 534 50T446 2T364 -23T293 -30Q249 -30 208 -15T133 30T80 104T60 206Q60 271 84 317T145 401Q169 425 200 447T285 491T419 532T623 571V682Q623 712 618 737T599 781T562 809T505 820Q484 820 463 812T425
787T399 748T392 694Q393 688 374 679T326 659T261 638T193 621T135 609T102 607L78 666Q103 729 156 782T281 875T438 937T614 960Q687 960 740 941T827 888T877 809T893 712V258Q893 216 904 198T933 180Q940 180 947 181T964 185T987 193T1021 207L1046 122Z"
/>
<glyph unicode="b" glyph-name="b" horiz-adv-x="1120" d="M800 418Q800 518 784 586T738 696T671 756T587 775Q552 775 506 759T390 700V223Q470 185 524 168T607 150Q656 150 692 170T753 226T788 311T800 418ZM1050 512Q1050 454 1027 392T964 269T871 154T758
59T634 -6T509 -30Q479 -30 435 -20T338 7T230 47T120 96V1256Q120 1302 117 1327T101 1364T65 1381T0 1390V1470Q52 1478 97 1485T183 1502T264 1523T343 1550Q347 1546 354 1539T370 1524Q379 1515 390 1506V827Q440 864 488 889T579 931T660 953T727 960Q803
960 863 928T964 838T1028 697T1050 512Z" />
<glyph unicode="c" glyph-name="c" horiz-adv-x="945" d="M910 190Q845 117 788 74T679 7T580 -23T485 -30Q401 -30 324 2T189 96T95 245T60 444Q60 552 100 646T212 809T386 919T610 960Q643 960 687 955T773 939T852 914T905 881Q906 873 902 851T891 799T873
736T853 672T834 619T818 587L741 597Q722 657 702 700T658 773T605 816T540 830Q499 830 461 811T394 750T348 641T330 475Q330 397 348 337T400 235T479 172T577 150Q605 150 632 153T690 169T760 203T851 261L910 190Z" />
<glyph unicode="d" glyph-name="d" horiz-adv-x="1175" d="M1171 124Q1125 93 1074 65T978 16T898 -17T849 -30Q811 -30 788 12T754 136Q705 89 666 57T591 6T518 -22T436 -30Q365 -30 298 2T178 96T93 245T60 444Q60 549 96 642T197 806T352 918T551 960Q598
960 644 949T745 902V1234Q745 1289 744 1321T730 1371T691 1395T610 1406V1485Q670 1490 724 1498T826 1514T910 1532T974 1550L1015 1510V314Q1015 279 1016 256T1020 218T1027 196T1038 186Q1044 183 1050 182T1067 182T1095 189T1138 207L1171 124ZM745 272V698Q707
756 657 788T540 820Q495 820 457 803T390 747T346 649T330 505Q330 428 348 368T397 266T467 202T547 180Q572 180 595 184T641 199T690 228T745 272Z" />
<glyph unicode="e" glyph-name="e" horiz-adv-x="1006" d="M516 835Q471 835 440 818T389 767T357 687T342 580H644Q667 580 674 587T682 616Q682 647 674 685T646 756T594 812T516 835ZM946 547Q937 537 919 525T878 500T834 477T796 460H340Q343 391 359 334T405
236T478 173T576 150Q607 150 637 153T701 169T779 204T883 266Q889 263 898 253T915 231T931 209T940 195Q869 126 813 82T705 13T601 -21T485 -30Q397 -30 320 4T185 101T94 251T60 444Q60 580 109 682T261 861Q317 903 393 931T554 960Q652 960 725 928T848
840T921 709T946 547Z" />
<glyph unicode="f" glyph-name="f" horiz-adv-x="715" d="M915 1454Q915 1441 905 1423T878 1386T841 1346T802 1310T765 1281T738 1263Q690 1328 646 1356T568 1385Q542 1385 521 1370T483 1313T459 1200T450 1016V930H696L735 891Q726 873 713 854T686 816T659
783T637 760Q614 772 572 783T450 795V142Q450 136 459 130T491 118T552 103T649 83V0H50V83Q119 95 149 112T180 142V795H66L35 833L113 930H180V961Q180 1103 219 1210T339 1398Q379 1438 421 1467T504 1514T584 1541T657 1550Q706 1550 752 1538T835 1511T893
1479T915 1454Z" />
<glyph unicode="g" glyph-name="g" horiz-adv-x="1079" d="M660 600Q660 649 648 693T613 769T556 821T476 840Q451 840 427 829T384 796T352 739T340 659Q340 609 350 566T383 490T441 439T524 420Q553 420 578 431T621 464T649 520T660 600ZM568 -54Q470 -41
389 -21Q350 -50 329 -73T296 -115T283 -150T280 -180Q280 -211 303 -239T367 -288T466 -322T592 -335Q648 -335 687 -322T752 -286T788 -235T800 -177Q800 -161 792 -144T760 -110T690 -79T568 -54ZM920 641Q920 564 887 501T796 392T662 321T499 295H487Q452
261 444 242T436 216Q436 208 440 201T466 185T530 169T652 150Q772 134 851 114T976 64T1041 -6T1060 -100Q1060 -145 1038 -191T978 -280T888 -362T776 -428T649 -473T517 -490Q463 -490 405 -484T290 -463T183 -428T94 -376T33 -307T10 -219Q10 -195 21 -170T59
-117T134 -55T255 19Q200 41 171 65T142 113Q142 137 188 191T336 316Q279 332 232 358T151 421T99 503T80 602Q80 675 117 740T216 854T360 931T535 960Q608 960 670 941T783 887Q823 893 862 902T936 922T1000 942T1049 960L1079 920Q1077 910 1071 895T1056
862T1039 829T1022 800Q989 795 955 791T880 784Q920 718 920 641Z" />
<glyph unicode="h" glyph-name="h" horiz-adv-x="1210" d="M660 0V83Q732 102 761 116T790 144V553Q790 614 784 654T765 717T732 750T682 760Q655 760 630 754T576 736T516 707T445 669V144Q445 129 477 113T575 83V0H45V83Q111 100 143 113T175 144V1258Q175
1300 173 1323T159 1360T120 1378T45 1390V1470Q106 1478 154 1486T243 1503T321 1524T398 1550L445 1506V814Q507 855 561 883T665 928T757 952T839 960Q882 960 922 946T992 901T1041 818T1060 691V144Q1060 137 1065 131T1085 117T1125 102T1190 83V0H660Z"
/>
<glyph unicode="i" glyph-name="i" horiz-adv-x="635" d="M60 0V83Q128 97 159 113T190 144V640Q190 691 190 722T178 771T140 797T60 810V890Q154 902 233 918T386 960H460V144Q460 132 488 115T590 83V0H60ZM500 1261Q500 1225 486 1196T447 1147T389 1115T315
1104Q285 1104 258 1110T208 1131T173 1168T160 1220Q160 1256 174 1285T214 1334T272 1365T345 1376Q374 1376 402 1370T451 1349T486 1314T500 1261Z" />
<glyph unicode="j" glyph-name="j" horiz-adv-x="610" d="M455 109Q455 -6 433 -85T375 -218T298 -310T215 -380Q188 -401 154 -421T84 -456T12 -481T-54 -490Q-96 -490 -141 -479T-224 -453T-286 -420T-310 -391Q-310 -380 -299 -364T-271 -329T-232 -291T-189
-256T-151 -227T-123 -210Q-107 -231 -83 -248T-32 -278T20 -298T65 -305Q90 -305 112 -292T150 -241T175 -135T185 43V640Q185 691 184 722T172 770T134 796T55 810V890Q112 897 153 904T230 919T300 937T378 960H455V109ZM500 1261Q500 1225 486 1196T447 1147T389
1115T315 1104Q285 1104 258 1110T208 1131T173 1168T160 1220Q160 1256 174 1285T214 1334T272 1365T345 1376Q374 1376 402 1370T451 1349T486 1314T500 1261Z" />
<glyph unicode="k" glyph-name="k" horiz-adv-x="1164" d="M45 0V83Q111 100 143 113T175 144V1256Q175 1302 171 1327T154 1364T114 1381T45 1390V1470Q152 1484 238 1501T398 1550L445 1506V535L693 759Q726 789 736 806T740 833T715 844T670 847V930H1139V847Q1094
842 1049 825T959 775L668 560L1024 161Q1038 145 1051 136T1080 123T1118 119T1168 121L1174 38Q1145 31 1106 23T1029 8T961 -5T920 -10Q878 -10 848 2T795 43L445 515V144Q445 136 448 130T463 118T496 103T555 83V0H45Z" />
<glyph unicode="l" glyph-name="l" horiz-adv-x="635" d="M50 0V83Q93 90 120 97T163 112T184 128T190 144V1256Q190 1301 186 1326T167 1363T128 1380T60 1390V1470Q115 1477 161 1484T250 1501T332 1522T414 1550L460 1506V144Q460 136 466 129T489 113T532
98T600 83V0H50Z" />
<glyph unicode="m" glyph-name="m" horiz-adv-x="1755" d="M1216 0V83Q1252 92 1273 100T1306 116T1321 130T1325 144V593Q1325 654 1319 689T1300 743T1268 765T1222 770Q1186 770 1134 753T1020 693V144Q1020 137 1024 131T1041 117T1078 102T1141 83V0H641V83Q677
92 698 100T731 116T746 130T750 144V593Q750 654 746 689T731 743T702 765T657 770Q619 770 567 754T445 693V144Q445 129 472 113T565 83V0H45V83Q111 100 143 113T175 144V681Q175 721 173 744T159 779T120 798T45 810V890Q102 896 147 903T233 918T310 936T385
960L430 915L441 826Q501 870 549 896T638 937T715 955T788 960Q836 960 871 948T932 918T972 878T996 835L1000 824Q1061 868 1110 894T1200 935T1279 955T1353 960Q1401 960 1444 946T1521 901T1575 818T1595 691V144Q1595 130 1626 117T1736 83V0H1216Z" />
<glyph unicode="n" glyph-name="n" horiz-adv-x="1210" d="M660 0V83Q732 102 761 116T790 144V573Q790 626 785 662T769 719T739 750T692 760Q671 760 648 757T596 744T530 716T445 669V144Q445 129 477 113T575 83V0H45V83Q111 100 143 113T175 144V681Q175
720 174 743T161 779T123 798T45 810V890Q97 895 142 901T228 916T307 935T385 960L430 915L441 806Q504 850 559 879T663 927T756 952T839 960Q882 960 922 946T992 901T1041 818T1060 691V144Q1060 137 1065 131T1085 117T1125 102T1190 83V0H660Z" />
<glyph unicode="o" glyph-name="o" horiz-adv-x="1090" d="M745 435Q745 514 732 585T692 711T627 798T536 830Q479 830 442 803T384 728T354 615T345 473Q345 394 360 326T403 208T469 129T554 100Q610 100 647 121T705 185T736 290T745 435ZM1030 485Q1030 418
1012 354T960 233T881 128T778 44T658 -10T526 -30Q420 -30 334 6T187 105T93 255T60 444Q60 510 76 574T124 695T200 801T301 885T423 940T565 960Q670 960 756 924T903 825T997 674T1030 485Z" />
<glyph unicode="p" glyph-name="p" horiz-adv-x="1165" d="M850 426Q850 525 830 591T778 699T705 757T623 775Q605 775 592 774T560 765T516 742T445 700V233Q501 203 539 186T605 161T656 152T701 150Q769 151 810 222T850 426ZM1105 502Q1105 434 1087 368T1038
243T967 134T884 48T796 -9T713 -30Q684 -30 656 -25T597 -7T528 26T445 78V-335Q445 -351 482 -367T614 -397V-480H45V-397Q111 -381 143 -367T175 -335V681Q175 718 173 742T158 780T119 801T45 810V890Q109 897 155 904T238 918T310 936T385 960L430 915L439
817Q496 862 543 890T628 933T699 954T760 960Q828 960 890 934T1000 852T1076 710T1105 502Z" />
<glyph unicode="q" glyph-name="q" horiz-adv-x="1145" d="M537 180Q562 180 585 184T631 199T680 228T735 272V690Q718 719 694 743T641 784T584 810T530 820Q485 820 449 804T386 750T345 655T330 515Q330 430 347 367T392 263T458 201T537 180ZM565 -480V-397Q659
-383 697 -368T735 -335V128Q687 83 648 53T570 5T493 -22T406 -30Q347 -30 286 2T174 96T92 245T60 444Q60 532 80 599T131 718T201 805T274 865Q302 884 336 901T406 932T480 952T551 960Q580 960 608 956T665 940T726 905T796 845Q823 858 854 874T913 906T964
936T995 960L1036 920Q1027 887 1020 849Q1014 817 1010 775T1005 687V-335Q1005 -343 1011 -351T1031 -367T1071 -382T1134 -397V-480H565Z" />
<glyph unicode="r" glyph-name="r" horiz-adv-x="941" d="M910 913Q916 909 916 886T910 827T895 751T876 670T856 597T837 546H754Q752 586 744 624T723 693T689 741T643 760Q625 760 604 757T557 737T504 688T445 596V144Q445 129 487 113T624 83V0H45V83Q175
113 175 144V656Q175 689 173 711T168 748T161 770T152 783Q145 790 138 794T120 802T91 806T45 810V890Q107 898 150 905T230 919T302 936T385 960L430 915L443 798Q470 831 504 860T578 912T661 947T747 960Q787 960 830 947T910 913Z" />
<glyph unicode="s" glyph-name="s" horiz-adv-x="880" d="M809 283Q809 212 787 162T730 76T650 20T559 -12T470 -26T395 -30Q360 -30 320 -26T239 -12T158 11T85 43Q78 46 75 79T71 160T76 259T92 353L185 342Q198 285 222 240T277 164T346 117T425 100Q497 100
528 120T559 197Q559 237 539 269T486 329T410 381T321 429Q279 450 237 476T161 533T105 603T83 690Q83 752 115 802T200 887T320 941T460 960Q506 960 552 955T639 939T714 915T773 883Q779 878 776 847T764 777T741 700T713 643L634 651Q617 745 572 797T454
850Q395 850 364 826T333 760Q333 728 348 704T392 657T464 612T564 559Q607 537 651 512T730 455T787 381T809 283Z" />
<glyph unicode="t" glyph-name="t" horiz-adv-x="775" d="M756 167Q612 64 519 17T373 -30Q327 -30 287 -13T216 40T168 128T150 251V795H31L0 833L78 930H150V1126L379 1290L420 1255V930H717L756 891Q747 873 734 854T706 816T679 783T655 760Q643 766 625 772T584
783T538 792T492 795H420V347Q420 298 426 265T443 210T468 180T497 170Q515 170 534 173T577 185T632 209T707 248L756 167Z" />
<glyph unicode="u" glyph-name="u" horiz-adv-x="1175" d="M1169 122Q1132 98 1084 71T990 22T908 -15T860 -30Q842 -30 825 -25T792 -4T764 44T745 126Q683 75 635 44T546 -3T473 -25T408 -30Q361 -30 315 -17T233 30T173 125T150 279V681Q150 729 149 755T137
795T102 814T31 824V904Q86 908 131 912T217 923T298 938T382 960L420 911V344Q420 285 427 249T447 193T479 167T523 160Q540 160 562 164T611 179T671 210T745 262V681Q745 726 742 753T726 795T687 816T615 824V904Q725 913 811 927T975 960L1015 911V294Q1015
263 1016 244T1019 213T1026 195T1038 184Q1044 180 1051 179T1069 180T1096 189T1139 207L1169 122Z" />
<glyph unicode="v" glyph-name="v" horiz-adv-x="1050" d="M1039 847Q1009 840 992 834T965 821T950 803T939 779L656 89Q647 67 628 48T583 14T528 -12T471 -30L111 779Q105 792 98 802T79 821T52 835T10 847V930H486V847Q447 842 425 837T394 824T385 806T393
779L597 322L790 779Q796 794 798 804T793 822T767 835T716 847V930H1039V847Z" />
<glyph unicode="w" glyph-name="w" horiz-adv-x="1476" d="M1465 847Q1438 840 1421 834T1392 821T1375 806T1365 785L1144 59Q1138 37 1119 22T1077 -4T1032 -21T997 -30L736 525L534 59Q526 36 508 21T468 -5T425 -21T391 -30L119 785Q113 803 87 819T10 847V930H486V847Q445
842 422 836T389 821T379 803T381 785L518 367L755 930H834L1083 367L1217 785Q1221 796 1222 805T1217 821T1192 835T1140 847V930H1465V847Z" />
<glyph unicode="x" glyph-name="x" horiz-adv-x="1080" d="M544 0V83Q569 85 589 88T620 99T629 123T608 166L477 348L331 166Q310 140 310 125T321 101T354 89T399 83V0H10V83Q46 89 71 98T115 118T147 143T173 172L399 457L181 762Q168 780 155 794T125 819T83
837T21 847V930H541V847Q510 844 493 840T469 827T469 803T493 764L590 628L698 764Q717 788 724 802T726 826T703 839T654 847V930H1035V847Q994 844 967 837T921 820T887 795T859 762L667 520L916 172Q927 157 939 143T969 117T1009 96T1066 83V0H544Z" />
<glyph unicode="y" glyph-name="y" horiz-adv-x="1050" d="M1039 847Q1009 840 990 834T960 821T942 804T929 779L595 -72Q552 -182 503 -261T397 -391T278 -466T147 -490Q109 -490 71 -482T2 -463T-48 -439T-67 -417Q-67 -407 -49 -379T-5 -320T47 -260T90 -222Q141
-257 192 -265T280 -260Q298 -254 317 -243T356 -213T393 -165T430 -92L459 -23L121 779Q110 806 85 821T10 847V930H486V847Q447 842 427 837T400 824T394 806T403 779L596 322L780 779Q786 794 789 804T787 822T765 835T715 847V930H1039V847Z" />
<glyph unicode="z" glyph-name="z" horiz-adv-x="977" d="M899 358Q899 326 898 273T896 165T892 64T887 0H82L56 45L576 800H345Q297 800 257 743T188 570L109 592L137 946Q159 940 177 937T214 932T257 930H895L917 887L395 130H712Q732 130 746 147T772 197T795
275T822 378L899 358Z" />
<glyph unicode="{" glyph-name="braceleft" horiz-adv-x="727" d="M707 1513Q629 1464 581 1401T533 1272Q533 1221 539 1180T553 1098T567 1016T574 923Q574 881 559 841T516 765T453 700T374 653Q474 635 524 566T574 385Q574 332 568 285T554 194T540 108T533
23Q533 -13 539 -44T562 -103T612 -158T697 -214L654 -315Q559 -281 484 -247T356 -170T275 -74T247 52Q247 103 253 147T267 233T281 321T288 422Q288 503 255 534T162 566H141Q135 566 130 566T119 564T97 560L80 653Q190 684 239 736T288 863Q288 916 282 957T268
1038T254 1119T247 1215Q247 1282 279 1338T368 1441T499 1527T661 1600L707 1513Z" />
<glyph unicode="|" glyph-name="bar" horiz-adv-x="470" d="M340 -343Q331 -351 314 -360T276 -377T237 -393T205 -405L160 -372V1611Q174 1619 191 1628T226 1645T261 1659T294 1670L340 1638V-343Z" />
<glyph unicode="}" glyph-name="braceright" horiz-adv-x="727" d="M647 631Q537 600 488 548T439 421Q439 368 445 327T459 246T473 165T480 69Q480 1 448 -54T359 -157T228 -243T66 -316L20 -229Q98 -180 146 -117T194 12Q194 63 188 104T174 186T160 268T153
361Q153 403 168 443T211 519T274 584T353 631Q253 649 203 718T153 899Q153 951 159 998T173 1090T187 1176T194 1261Q194 1297 188 1328T165 1387T115 1442T30 1498L73 1599Q168 1565 243 1531T371 1454T452 1358T480 1232Q480 1181 474 1137T460 1051T446 963T439
862Q439 781 472 750T565 718H585Q592 718 597 718T608 720T630 724L647 631Z" />
<glyph unicode="~" glyph-name="asciitilde" horiz-adv-x="999" d="M950 774Q929 725 897 673T826 577T741 505T647 477Q605 477 558 502T463 557T367 612T276 637Q227 637 186 598T102 475L49 502Q70 551 102 603T174 699T259 771T352 799Q398 799 446 774T542
719T635 664T721 639Q769 639 812 678T897 799L950 774Z" />
<glyph unicode="&#xa0;" glyph-name="uni00A0" horiz-adv-x="530" />
<glyph unicode="&#xa1;" glyph-name="exclamdown" horiz-adv-x="658" d="M482 -438Q459 -450 423 -468T347 -504T273 -537T216 -560L163 -525L252 501Q261 508 275 513T306 523T338 532T366 540L395 519L482 -438ZM502 818Q502 777 486 745T442 690T378 656T303
644Q274 644 246 652T195 677T158 721T144 787Q144 829 159 861T202 915T265 948T342 960Q372 960 401 952T452 927T488 883T502 818Z" />
<glyph unicode="&#xa2;" glyph-name="cent" horiz-adv-x="1061" d="M635 12Q617 -4 591 -18T540 -41L505 -6V130Q458 134 409 150T313 194T224 259T151 347T102 456T84 586Q84 675 113 753T197 893T330 999T505 1063V1194Q519 1203 529 1210T550 1224T572 1236T599
1245L635 1213V1078Q642 1079 649 1079H664Q697 1079 742 1074T833 1058T915 1033T970 999Q971 991 967 974T956 934T938 885T918 836T898 795T883 768L808 788Q800 803 786 824T751 866T701 905T635 933V283Q665 285 694 293T755 319T823 366T905 441L974 360Q923
304 879 265T794 199T714 158T635 136V12ZM326 616Q326 485 375 407T505 299V931Q470 921 438 899T380 838T341 746T326 616Z" />
<glyph unicode="&#xa3;" glyph-name="sterling" horiz-adv-x="1061" d="M755 516H483Q486 405 461 318T378 151Q423 155 455 156T511 157T556 155T597 153T645 151T709 151Q755 152 788 161T846 194T893 255T935 352L1018 324Q1014 281 1007 231T993 134T978 51T967
0Q922 -25 853 -28T703 -24T533 -6T363 11T208 9T87 -30L44 49Q74 74 97 96T137 145T165 203T181 278T186 380T181 516H66L34 551Q36 558 42 571T54 598T67 626T76 647H174Q173 775 207 883T306 1069T461 1191T664 1235Q690 1235 725 1233T802 1224T888 1203T981
1165Q980 1148 979 1120T974 1059T967 991T959 925T951 868T942 830H855Q848 892 832 943T789 1030T728 1086T650 1106Q632 1106 610 1103T565 1085T522 1041T488 960T469 833T473 647H765L800 614L755 516Z" />
<glyph unicode="&#xa4;" glyph-name="currency" horiz-adv-x="1061" d="M367 769Q332 734 315 690T297 601Q297 556 313 514T365 437Q401 401 444 384T532 367Q578 367 620 384T697 436Q731 471 748 514T766 602Q766 647 749 690T696 769Q661 804 620 820T532
837Q487 837 445 821T367 769ZM889 151L741 298Q695 266 642 250T532 234Q475 234 422 250T320 299L169 150L123 153Q112 172 101 194T80 240L229 389Q196 437 180 490T164 599Q164 656 180 710T231 813L81 963L84 1010Q103 1021 125 1032T171 1053L320 903Q368
938 422 955T532 972Q588 972 640 955T741 904L889 1052L936 1053L978 961L831 813Q864 765 881 711T899 599Q899 544 882 491T832 389L980 241L981 193L889 151Z" />
<glyph unicode="&#xa5;" glyph-name="yen" horiz-adv-x="1061" d="M226 0V83Q271 92 301 102T348 121T373 139T380 155V372H87L65 396Q67 403 72 418T82 449T93 479T102 502H380V512Q345 590 306 667T226 814T147 946T72 1055Q63 1066 54 1074T28 1088T-14 1097T-82
1100L-86 1183Q-57 1187 -16 1192T67 1202T145 1210T203 1214Q232 1214 263 1201T311 1165Q384 1066 452 952T590 693L775 1055Q790 1081 766 1096T664 1121V1204H1090V1121Q1056 1115 1032 1109T990 1095T962 1078T944 1055L660 509V502H925L950 479L910 372H660V155Q660
149 667 141T691 122T739 102T816 83V0H226Z" />
<glyph unicode="&#xa6;" glyph-name="brokenbar" horiz-adv-x="469" d="M346 -344Q336 -352 317 -361T276 -378T234 -394T201 -406L154 -373V479Q169 488 187 496T225 513T264 529T299 541L346 506V-344ZM346 777Q336 769 317 760T276 743T234 727T201 716L154
748V1611Q169 1619 187 1628T225 1645T264 1659T299 1670L346 1638V777Z" />
<glyph unicode="&#xa7;" glyph-name="section" horiz-adv-x="1046" d="M684 526Q706 564 706 607Q706 658 691 696T642 766T559 830T438 899Q424 906 411 913T382 929Q363 906 352 881T340 830Q340 786 356 754T404 693T486 635T601 569L684 526ZM946 673Q946
590 915 524T837 411Q860 384 873 353T886 283Q886 212 864 162T807 76T727 20T636 -12T547 -26T472 -30Q437 -30 397 -26T316 -12T235 11T162 43Q155 46 152 79T148 160T153 259T169 353L262 342Q275 285 299 240T354 163T423 115T502 98Q574 98 605 119T636 197Q636
237 612 269T548 329T462 381T368 429Q326 450 279 481T193 556T127 654T100 780Q100 813 110 846T139 911T183 971T240 1023Q205 1055 183 1091T160 1170Q160 1232 192 1282T277 1367T397 1421T537 1440Q583 1440 629 1435T716 1419T791 1395T850 1363Q856 1358
853 1327T841 1257T818 1180T790 1123L711 1131Q694 1225 649 1277T531 1330Q472 1330 441 1306T410 1240Q410 1208 429 1184T484 1137T566 1092T671 1039Q714 1017 762 987T852 913T919 810T946 673Z" />
<glyph unicode="&#xa8;" glyph-name="dieresis" horiz-adv-x="801" d="M765 1270Q765 1231 752 1196T715 1136T660 1095T595 1080Q532 1080 499 1113T465 1210Q465 1250 479 1284T517 1344T571 1385T635 1400Q695 1400 730 1368T765 1270ZM335 1270Q335 1231 322
1196T285 1136T230 1095T165 1080Q102 1080 69 1113T35 1210Q35 1250 49 1284T87 1344T141 1385T205 1400Q265 1400 300 1368T335 1270Z" />
<glyph unicode="&#xa9;" glyph-name="copyright" horiz-adv-x="1508" d="M1084 426Q1028 364 981 328T892 271T811 245T731 239Q659 239 593 268T475 350T393 480T362 651Q362 742 397 825T496 970T646 1069T838 1106Q869 1106 904 1100T971 1083T1030 1058T1071
1029Q1072 1022 1069 1003T1059 959T1045 906T1027 852T1011 807T997 779L932 788Q925 828 914 866T886 932T842 978T778 996Q689 996 637 920T584 684Q584 618 602 565T652 473T724 415T810 394Q834 394 855 397T902 409T958 437T1034 487L1084 426ZM1298 677Q1298
795 1258 899T1145 1082T972 1205T753 1250Q635 1250 536 1205T364 1082T251 900T210 677Q210 558 250 453T363 270T535 147T753 102Q872 102 972 147T1144 270T1257 453T1298 677ZM1428 677Q1428 531 1378 402T1237 177T1023 26T753 -30Q655 -30 568 -5T405 67T270
177T168 320T103 489T80 677Q80 823 130 951T270 1175T483 1326T753 1382Q850 1382 938 1357T1101 1286T1236 1176T1339 1033T1405 865T1428 677Z" />
<glyph unicode="&#xaa;" glyph-name="ordfeminine" horiz-adv-x="577" d="M562 811Q539 796 515 782T468 756T422 738T381 731Q374 731 368 734T357 747T347 772T340 815Q290 765 244 748T162 731Q142 731 121 737T81 756T51 791T39 845Q39 876 49 906T82 962T141
1009T228 1039L337 1060V1071Q337 1102 336 1125T329 1165T310 1189T274 1197Q245 1197 226 1183T215 1134Q216 1131 206 1126T181 1116T146 1106T110 1096T79 1090T61 1089L48 1118Q64 1153 93 1181T161 1230T243 1260T332 1271Q368 1271 395 1264T442 1237T470
1184T480 1098V902Q480 874 484 862T494 842Q499 839 509 842T548 856L562 811ZM41 586V679H535V586H41ZM337 882V1005L284 994Q246 986 218 959T190 889Q190 855 206 843T236 831Q245 831 254 832T276 839T302 855T337 882Z" />
<glyph unicode="&#xab;" glyph-name="guillemotleft" horiz-adv-x="1074" d="M60 430V465Q60 479 60 490T62 503L471 933L533 883L525 865Q517 847 504 818T473 751T437 674T402 598T372 531T350 485T343 467L534 47L471 -3L60 430ZM480 430V465Q480 479 480 490T482
503L891 933L953 883L945 865Q937 847 924 818T893 751T857 674T822 598T792 531T770 485T763 467L954 47L891 -3L480 430Z" />
<glyph unicode="&#xac;" glyph-name="logicalnot" horiz-adv-x="1061" d="M971 233Q961 225 945 215T910 195T875 175T845 162L810 197V486H115L80 520Q83 530 89 546T103 579T118 612T131 638H932L971 606V233Z" />
<glyph unicode="&#xad;" glyph-name="uni00AD" horiz-adv-x="740" d="M690 556Q687 545 680 528T665 493T650 459T639 435H85L50 469Q53 480 59 496T73 530T88 564T101 590H655L690 556Z" />
<glyph unicode="&#xae;" glyph-name="registered" horiz-adv-x="730" d="M716 1084Q716 1009 690 942T616 826T505 747T364 718Q289 718 225 747T115 825T42 942T15 1084Q15 1159 41 1226T114 1342T225 1421T364 1450Q440 1450 504 1421T616 1343T689 1226T716
1084ZM637 1084Q637 1143 617 1195T560 1287T474 1348T364 1371Q305 1371 256 1349T170 1287T114 1196T93 1084Q93 1024 113 972T170 881T255 820T364 797Q424 797 474 819T560 881T616 972T637 1084ZM205 883V908Q226 913 234 916T243 925V1249Q233 1247 224 1246T207
1244L203 1279Q232 1286 271 1290T353 1294Q398 1294 429 1287T481 1266T510 1234T519 1196Q519 1150 495 1119T421 1075L512 940Q519 929 527 926T558 924L561 900Q551 897 537 894T509 887T483 881T465 879Q445 879 438 894L353 1066H333Q327 1066 321 1068V925Q321
921 327 917T356 908V883H205ZM342 1256H331Q326 1256 321 1255V1110Q326 1109 330 1109H340Q391 1109 410 1129T430 1187Q430 1216 407 1236T342 1256Z" />
<glyph unicode="&#xaf;" glyph-name="overscore" horiz-adv-x="1010" d="M960 1315Q957 1304 949 1284T930 1243T912 1202T899 1175H85L50 1209Q53 1220 61 1239T78 1280T97 1320T111 1349H925L960 1315Z" />
<glyph unicode="&#xb0;" glyph-name="degree" horiz-adv-x="733" d="M461 995Q461 1019 455 1040T438 1077T411 1103T376 1113Q356 1113 338 1105T305 1082T282 1046T273 998Q273 975 279 954T295 917T321 890T357 880Q376 880 395 887T428 910T452 946T461 995ZM627
1052Q627 981 600 921T529 817T431 748T323 723Q276 723 236 740T167 787T122 856T106 941Q106 1013 133 1073T203 1178T301 1246T410 1271Q455 1271 494 1253T563 1205T610 1136T627 1052Z" />
<glyph unicode="&#xb1;" glyph-name="plusminus" horiz-adv-x="840" d="M820 226Q817 215 810 198T795 163T780 129T769 105H85L50 139Q53 150 59 166T73 200T88 234T101 260H785L820 226ZM515 351Q505 346 489 340T456 328T423 317T395 310L360 342V615H85L50
649Q53 660 59 676T73 710T88 744T101 770H360V1036Q369 1039 385 1044T419 1056T453 1067T481 1075L515 1042V770H785L820 736Q817 725 810 708T795 673T780 639T769 615H515V351Z" />
<glyph unicode="&#xb2;" glyph-name="twosuperior" horiz-adv-x="723" d="M659 620H75L55 664Q136 746 196 810T300 923T370 1010T413 1077T435 1130T441 1174Q441 1224 423 1250T362 1277Q312 1277 297 1246T294 1168Q282 1162 256 1156T201 1143T143 1133T99
1127L73 1175Q73 1206 99 1239T172 1299T279 1343T409 1361Q526 1361 592 1324T659 1215Q659 1188 653 1163T631 1108T588 1045T520 968T423 870T290 745H535Q558 745 572 764T594 807Q603 834 606 869L669 856L659 620Z" />
<glyph unicode="&#xb3;" glyph-name="threesuperior" horiz-adv-x="723" d="M661 849Q661 798 637 754T569 675T465 622T333 602Q306 602 271 608T199 626T124 658T55 703L85 788Q149 747 203 727T310 707Q367 707 403 741T439 839Q439 878 428 902T398 941T358
961T315 966H298Q292 966 286 966T272 964T253 962L240 1032Q298 1045 330 1063T378 1102T396 1144T399 1184Q399 1226 385 1251T333 1277Q318 1277 304 1270T281 1250T268 1220T273 1182Q258 1174 237 1167T192 1152T144 1141T99 1134L73 1177Q73 1202 94 1234T155
1294T249 1341T373 1361Q441 1361 488 1347T564 1309T607 1255T620 1195Q620 1172 611 1149T584 1104T541 1065T482 1039Q526 1035 559 1019T615 977T649 918T661 849Z" />
<glyph unicode="&#xb4;" glyph-name="acute" horiz-adv-x="653" d="M294 1037Q285 1038 271 1044T243 1057T216 1072T197 1085L401 1519Q409 1518 428 1516T474 1509T529 1500T583 1491T629 1482T656 1476L689 1417L294 1037Z" />
<glyph unicode="&#xb5;" glyph-name="mu" horiz-adv-x="1185" d="M1185 102Q1156 79 1116 56T1033 13T951 -18T883 -31Q855 -31 833 -17T795 22T768 80T753 152Q716 102 684 68T622 11T562 -21T500 -31Q460 -31 407 5T303 103V76Q303 -9 319 -80T360 -210T418
-313T481 -389Q471 -392 450 -400T401 -420T343 -443T285 -467T238 -487T209 -500L160 -461V681Q160 720 159 743T148 781T113 802T41 814V894Q135 900 217 916T382 960L388 953Q394 947 402 939T418 921T430 907V386Q430 338 446 300T484 236T531 195T573 181Q589
181 606 185T644 204T691 244T750 312V748Q750 764 747 786T738 831T726 872T712 900Q742 904 778 910T853 925T929 942T998 960L1036 911Q1034 898 1032 885T1027 854T1023 813T1020 759V308Q1020 261 1022 232T1029 187T1041 165T1059 159Q1081 159 1101 164T1155
187L1185 102Z" />
<glyph unicode="&#xb6;" glyph-name="paragraph" horiz-adv-x="1276" d="M495 -250V-167Q564 -153 597 -136T631 -105L632 522Q614 519 593 518T545 516Q433 516 339 541T176 616T69 737T30 903Q30 988 66 1059T169 1181T333 1261T549 1290Q571 1290 608 1289T691
1285T788 1281T890 1275Q1008 1268 1144 1260H1206V1177Q1138 1163 1104 1146T1070 1115V-105Q1070 -118 1101 -135T1206 -167V-250H495ZM632 640L633 1165Q616 1166 603 1166H580Q535 1166 490 1152T409 1108T349 1037T326 938Q326 884 341 831T388 735T469 666T588
640H632ZM892 1136Q872 1141 852 1144T812 1149V-105Q812 -116 826 -124T851 -136Q863 -133 877 -125T892 -105V1136Z" />
<glyph unicode="&#xb7;" glyph-name="middot" horiz-adv-x="459" d="M409 703Q409 661 393 629T350 575T287 542T211 530Q181 530 152 538T101 563T65 607T51 672Q51 713 67 745T111 800T175 834T250 846Q278 846 306 838T358 813T395 768T409 703Z" />
<glyph unicode="&#xb8;" glyph-name="cedilla" horiz-adv-x="469" d="M469 -229Q469 -266 439 -301T357 -366T237 -416T91 -444L49 -365Q130 -354 165 -326T201 -266Q201 -232 179 -217T118 -199Q119 -198 122 -194Q126 -190 135 -170T160 -106T200 14L338 12L299
-84Q469 -114 469 -229Z" />
<glyph unicode="&#xb9;" glyph-name="onesuperior" horiz-adv-x="723" d="M105 620V686Q160 692 194 698T249 712T276 726T284 740V1150Q284 1174 282 1187T271 1209Q267 1213 258 1215T230 1217T181 1213T105 1200L83 1265Q103 1268 134 1275T201 1291T276 1311T349
1332T414 1352T460 1367L493 1340V740Q493 734 499 727T522 713T572 699T658 686V620H105Z" />
<glyph unicode="&#xba;" glyph-name="ordmasculine" horiz-adv-x="574" d="M394 983Q394 1025 388 1064T368 1135T333 1184T282 1203Q252 1203 233 1190T202 1151T185 1091T180 1014Q180 972 189 933T213 865T248 818T292 800Q323 800 342 812T373 849T389 907T394
983ZM39 586V679H534V586H39ZM544 1009Q544 958 523 908T465 819T380 755T277 731Q220 731 174 750T96 804T47 886T30 988Q30 1040 49 1091T103 1182T187 1247T297 1272Q353 1272 398 1252T476 1195T526 1111T544 1009Z" />
<glyph unicode="&#xbb;" glyph-name="guillemotright" horiz-adv-x="1074" d="M1012 427L603 -3L541 47L731 463L540 883L603 933L1014 500L1012 427ZM592 427L183 -3L121 47L311 463L120 883L183 933L594 500L592 427Z" />
<glyph unicode="&#xbc;" glyph-name="onequarter" horiz-adv-x="1300" d="M1013 461L840 231H1013V461ZM1251 216Q1239 200 1221 183T1189 158H1160V69Q1160 62 1176 56T1239 40V0H892V40Q929 45 953 49T990 58T1008 66T1013 74V158H746L721 179L993 559Q1007
563 1025 568T1063 578T1101 588T1133 598L1160 576V231H1236L1251 216ZM85 637V682Q130 686 159 691T207 702T232 714T239 725V1069Q239 1088 238 1098T229 1116Q226 1119 217 1121T192 1123T149 1119T85 1109L68 1153Q92 1157 134 1167T220 1190T305 1215T367
1235L393 1213V725Q393 720 399 715T421 703T465 692T536 682V637H85ZM306 3Q294 -3 276 -7T237 -16T196 -23T163 -30L138 0L1070 1203Q1080 1207 1098 1211T1138 1220T1178 1229T1209 1235L1234 1207L306 3Z" />
<glyph unicode="&#xbd;" glyph-name="onehalf" horiz-adv-x="1300" d="M85 637V682Q130 686 159 691T207 702T232 714T239 725V1069Q239 1088 238 1098T229 1116Q226 1119 217 1121T192 1123T149 1119T85 1109L68 1153Q92 1157 134 1167T220 1190T305 1215T367
1235L393 1213V725Q393 720 399 715T421 703T465 692T536 682V637H85ZM306 3Q294 -3 276 -7T237 -16T196 -23T163 -30L138 0L1070 1203Q1080 1207 1098 1211T1138 1220T1178 1229T1209 1235L1234 1207L306 3ZM1227 0H752L735 36Q835 135 899 201T1000 313T1051
388T1066 444Q1066 483 1048 508T986 533Q963 533 947 525T922 504T911 474T914 439Q904 434 886 429T846 419T805 411T772 406L751 444Q751 469 772 495T831 543T918 579T1024 593Q1119 593 1173 563T1227 476Q1227 443 1211 411T1157 336T1057 235T902 92H1126Q1146
92 1157 107T1175 142Q1182 164 1185 192L1236 181L1227 0Z" />
<glyph unicode="&#xbe;" glyph-name="threequarters" horiz-adv-x="1300" d="M1013 461L840 231H1013V461ZM1251 216Q1239 200 1221 183T1189 158H1160V69Q1160 62 1176 56T1239 40V0H892V40Q929 45 953 49T990 58T1008 66T1013 74V158H746L721 179L993 559Q1007
563 1025 568T1063 578T1101 588T1133 598L1160 576V231H1236L1251 216ZM306 3Q294 -3 276 -7T237 -16T196 -23T163 -30L138 0L1070 1203Q1080 1207 1098 1211T1138 1220T1178 1229T1209 1235L1234 1207L306 3ZM539 820Q539 779 519 744T464 681T379 639T271 623Q248
623 220 628T161 643T100 668T44 704L70 755Q122 723 166 710T253 696Q277 696 299 702T337 721T364 756T374 809Q374 841 362 863T332 898T294 916T256 922Q240 922 232 922T206 918L196 966Q244 977 272 992T316 1023T336 1056T341 1088Q341 1121 326 1145T271
1170Q259 1170 248 1165T229 1149T219 1125T222 1094Q210 1088 193 1082T156 1071T117 1062T80 1057L60 1091Q60 1111 77 1135T126 1180T203 1215T304 1230Q359 1230 397 1219T460 1188T494 1145T505 1097Q505 1079 496 1060T472 1023T434 993T385 972Q421 969
449 956T498 923T528 876T539 820Z" />
<glyph unicode="&#xbf;" glyph-name="questiondown" horiz-adv-x="947" d="M434 501Q453 515 482 524T540 542L575 511L583 405Q586 347 571 294T530 189T474 88T418 -10T374 -105T356 -200Q356 -323 390 -378T483 -434Q504 -434 524 -423T559 -389T584 -336T593
-266Q593 -252 590 -232T581 -198Q597 -190 632 -179T708 -158T787 -140T848 -130L885 -170Q887 -178 887 -196V-223Q887 -294 849 -355T745 -462T595 -534T415 -560Q329 -560 263 -537T152 -473T84 -373T60 -245Q60 -170 86 -108T152 8T238 110T326 205T396 301T428
405L434 501ZM674 818Q674 777 658 745T614 690T550 656T475 644Q446 644 418 652T367 677T330 721T316 787Q316 829 331 861T374 915T437 948T514 960Q544 960 573 952T624 927T660 883T674 818Z" />
<glyph unicode="&#xc0;" glyph-name="Agrave" horiz-adv-x="1309" d="M743 555L582 1003L439 555H743ZM396 425L305 151Q295 120 328 106T444 83V0H0V83Q68 95 103 108T148 151L490 1197Q517 1220 549 1238T616 1272T683 1298T747 1317L1167 151Q1172 137 1179
126T1200 107T1235 93T1288 83V0H766V83Q843 87 870 102T887 151L789 425H396ZM841 1422Q827 1403 810 1384T776 1357L294 1589L305 1658Q312 1666 337 1683T391 1720T446 1756T484 1779L841 1422Z" />
<glyph unicode="&#xc1;" glyph-name="Aacute" horiz-adv-x="1309" d="M743 555L582 1003L439 555H743ZM396 425L305 151Q295 120 328 106T444 83V0H0V83Q68 95 103 108T148 151L490 1197Q517 1220 549 1238T616 1272T683 1298T747 1317L1167 151Q1172 137 1179
126T1200 107T1235 93T1288 83V0H766V83Q843 87 870 102T887 151L789 425H396ZM512 1357Q503 1361 493 1369T473 1389T453 1411T437 1432L794 1779Q821 1765 852 1747T912 1711T962 1678T992 1655L1001 1600L512 1357Z" />
<glyph unicode="&#xc2;" glyph-name="Acircumflex" horiz-adv-x="1309" d="M743 555L582 1003L439 555H743ZM396 425L305 151Q295 120 328 106T444 83V0H0V83Q68 95 103 108T148 151L490 1197Q517 1220 549 1238T616 1272T683 1298T747 1317L1167 151Q1172 137
1179 126T1200 107T1235 93T1288 83V0H766V83Q843 87 870 102T887 151L789 425H396ZM990 1422Q978 1403 961 1384T927 1357L643 1505L362 1357Q345 1365 328 1384T297 1422L581 1751H708L990 1422Z" />
<glyph unicode="&#xc3;" glyph-name="Atilde" horiz-adv-x="1309" d="M743 555L582 1003L439 555H743ZM396 425L305 151Q295 120 328 106T444 83V0H0V83Q68 95 103 108T148 151L490 1197Q517 1220 549 1238T616 1272T683 1298T747 1317L1167 151Q1172 137 1179
126T1200 107T1235 93T1288 83V0H766V83Q843 87 870 102T887 151L789 425H396ZM1055 1667Q1037 1626 1011 1575T951 1478T875 1401T785 1370Q739 1370 698 1386T617 1421T538 1457T459 1473Q435 1473 417 1466T383 1444T350 1409T316 1360L233 1390Q251 1431 277
1483T337 1581T412 1658T502 1690Q551 1690 594 1674T678 1639T754 1603T826 1587Q872 1587 904 1614T971 1700L1055 1667Z" />
<glyph unicode="&#xc4;" glyph-name="Adieresis" horiz-adv-x="1309" d="M743 555L582 1003L439 555H743ZM396 425L305 151Q295 120 328 106T444 83V0H0V83Q68 95 103 108T148 151L490 1197Q517 1220 549 1238T616 1272T683 1298T747 1317L1167 151Q1172 137 1179
126T1200 107T1235 93T1288 83V0H766V83Q843 87 870 102T887 151L789 425H396ZM1009 1550Q1009 1511 996 1476T959 1416T904 1375T839 1360Q776 1360 743 1393T709 1490Q709 1530 723 1564T761 1624T815 1665T879 1680Q939 1680 974 1648T1009 1550ZM579 1550Q579
1511 566 1476T529 1416T474 1375T409 1360Q346 1360 313 1393T279 1490Q279 1530 293 1564T331 1624T385 1665T449 1680Q509 1680 544 1648T579 1550Z" />
<glyph unicode="&#xc5;" glyph-name="Aring" horiz-adv-x="1309" d="M743 555L582 1003L439 555H743ZM396 425L305 151Q295 120 328 106T444 83V0H0V83Q68 95 103 108T148 151L490 1197Q517 1220 549 1238T616 1272T683 1298T747 1317L1167 151Q1172 137 1179
126T1200 107T1235 93T1288 83V0H766V83Q843 87 870 102T887 151L789 425H396ZM710 1563Q710 1587 705 1604T691 1632T673 1649T654 1654Q633 1654 619 1646T595 1625T582 1596T578 1565Q578 1542 583 1526T597 1498T615 1482T634 1476Q674 1476 692 1502T710 1563ZM860
1604Q860 1550 840 1502T786 1418T707 1361T613 1340Q572 1340 538 1352T480 1389T442 1447T428 1524Q428 1579 448 1627T501 1712T580 1769T675 1790Q763 1790 811 1739T860 1604Z" />
<glyph unicode="&#xc6;" glyph-name="AE" horiz-adv-x="1675" d="M1633 324Q1628 281 1623 231T1613 134T1602 51T1593 0H621V83Q689 97 721 113T754 144V615H503L315 151Q302 122 323 107T416 83V0H0V83Q60 91 94 106T141 151L521 1093Q528 1110 526 1121T507
1142T461 1160T381 1177V1260H1528L1568 1225Q1566 1199 1563 1157T1554 1071T1541 988T1527 930H1442Q1437 1023 1418 1076T1360 1130H1034V735H1429L1466 697Q1457 683 1445 664T1421 624T1396 587T1374 560Q1360 574 1340 584T1303 600T1275 610Q1266 613 1270
615H1034V194Q1034 179 1041 168T1071 148T1134 135T1241 130H1325Q1371 130 1404 142T1462 182T1509 251T1551 352L1633 324ZM754 1108Q754 1119 748 1124T732 1128T713 1117T696 1091L549 735H754V1108Z" />
<glyph unicode="&#xc7;" glyph-name="Ccedilla" horiz-adv-x="1158" d="M822 -229Q822 -266 792 -301T710 -366T590 -416T444 -444L402 -365Q483 -354 518 -326T554 -266Q554 -232 532 -217T471 -199Q472 -198 475 -194Q479 -190 488 -170T513 -106Q524 -75 540
-27Q463 -19 389 12Q292 54 217 133T96 326T50 586Q50 746 99 876T235 1098T440 1241T696 1290Q750 1290 805 1282T910 1261T1001 1229T1069 1190Q1073 1187 1069 1170T1054 1129T1031 1076T1005 1021T979 975T959 947L884 963Q834 1064 770 1107T632 1150Q581
1150 528 1126T432 1042T362 881T335 623Q335 497 367 408T450 261T565 177T693 150Q720 150 757 155T837 176T930 217T1031 286Q1036 282 1044 271T1061 248T1077 225T1088 211Q960 82 834 26Q754 -10 677 -22L652 -84Q822 -114 822 -229Z" />
<glyph unicode="&#xc8;" glyph-name="Egrave" horiz-adv-x="1096" d="M1054 324Q1050 281 1045 231T1034 134T1023 51T1013 0H40V83Q108 97 141 113T175 144V1115Q175 1127 144 1145T40 1177V1260H946L989 1225Q987 1199 983 1157T973 1071T961 988T948 930H863Q858
1023 838 1076T781 1130H455V735H850L886 697Q878 683 867 664T843 626T818 590T794 566Q779 581 762 591T722 608T669 618T596 621H455V194Q455 179 462 168T491 148T553 135T659 130H748Q794 130 826 142T884 182T929 251T971 352L1054 324ZM744 1422Q730 1403
713 1384T679 1357L197 1589L208 1658Q215 1666 240 1683T294 1720T349 1756T387 1779L744 1422Z" />
<glyph unicode="&#xc9;" glyph-name="Eacute" horiz-adv-x="1096" d="M1054 324Q1050 281 1045 231T1034 134T1023 51T1013 0H40V83Q108 97 141 113T175 144V1115Q175 1127 144 1145T40 1177V1260H946L989 1225Q987 1199 983 1157T973 1071T961 988T948 930H863Q858
1023 838 1076T781 1130H455V735H850L886 697Q878 683 867 664T843 626T818 590T794 566Q779 581 762 591T722 608T669 618T596 621H455V194Q455 179 462 168T491 148T553 135T659 130H748Q794 130 826 142T884 182T929 251T971 352L1054 324ZM415 1357Q406 1361
396 1369T376 1389T356 1411T340 1432L697 1779Q724 1765 755 1747T815 1711T865 1678T895 1655L904 1600L415 1357Z" />
<glyph unicode="&#xca;" glyph-name="Ecircumflex" horiz-adv-x="1096" d="M1054 324Q1050 281 1045 231T1034 134T1023 51T1013 0H40V83Q108 97 141 113T175 144V1115Q175 1127 144 1145T40 1177V1260H946L989 1225Q987 1199 983 1157T973 1071T961 988T948 930H863Q858
1023 838 1076T781 1130H455V735H850L886 697Q878 683 867 664T843 626T818 590T794 566Q779 581 762 591T722 608T669 618T596 621H455V194Q455 179 462 168T491 148T553 135T659 130H748Q794 130 826 142T884 182T929 251T971 352L1054 324ZM893 1422Q881 1403
864 1384T830 1357L546 1505L265 1357Q248 1365 231 1384T200 1422L484 1751H611L893 1422Z" />
<glyph unicode="&#xcb;" glyph-name="Edieresis" horiz-adv-x="1096" d="M1054 324Q1050 281 1045 231T1034 134T1023 51T1013 0H40V83Q108 97 141 113T175 144V1115Q175 1127 144 1145T40 1177V1260H946L989 1225Q987 1199 983 1157T973 1071T961 988T948 930H863Q858
1023 838 1076T781 1130H455V735H850L886 697Q878 683 867 664T843 626T818 590T794 566Q779 581 762 591T722 608T669 618T596 621H455V194Q455 179 462 168T491 148T553 135T659 130H748Q794 130 826 142T884 182T929 251T971 352L1054 324ZM912 1550Q912 1511
899 1476T862 1416T807 1375T742 1360Q679 1360 646 1393T612 1490Q612 1530 626 1564T664 1624T718 1665T782 1680Q842 1680 877 1648T912 1550ZM482 1550Q482 1511 469 1476T432 1416T377 1375T312 1360Q249 1360 216 1393T182 1490Q182 1530 196 1564T234 1624T288
1665T352 1680Q412 1680 447 1648T482 1550Z" />
<glyph unicode="&#xcc;" glyph-name="Igrave" horiz-adv-x="690" d="M60 0V83Q128 97 161 113T195 144V1115Q195 1127 164 1145T60 1177V1260H610V1177Q542 1163 509 1146T475 1115V144Q475 132 506 115T610 83V0H60ZM532 1422Q518 1403 501 1384T467 1357L-15
1589L-4 1658Q3 1666 28 1683T82 1720T137 1756T175 1779L532 1422Z" />
<glyph unicode="&#xcd;" glyph-name="Iacute" horiz-adv-x="690" d="M60 0V83Q128 97 161 113T195 144V1115Q195 1127 164 1145T60 1177V1260H610V1177Q542 1163 509 1146T475 1115V144Q475 132 506 115T610 83V0H60ZM203 1357Q194 1361 184 1369T164 1389T144
1411T128 1432L485 1779Q512 1765 543 1747T603 1711T653 1678T683 1655L692 1600L203 1357Z" />
<glyph unicode="&#xce;" glyph-name="Icircumflex" horiz-adv-x="690" d="M60 0V83Q128 97 161 113T195 144V1115Q195 1127 164 1145T60 1177V1260H610V1177Q542 1163 509 1146T475 1115V144Q475 132 506 115T610 83V0H60ZM681 1422Q669 1403 652 1384T618 1357L334
1505L53 1357Q36 1365 19 1384T-12 1422L272 1751H399L681 1422Z" />
<glyph unicode="&#xcf;" glyph-name="Idieresis" horiz-adv-x="690" d="M60 0V83Q128 97 161 113T195 144V1115Q195 1127 164 1145T60 1177V1260H610V1177Q542 1163 509 1146T475 1115V144Q475 132 506 115T610 83V0H60ZM700 1550Q700 1511 687 1476T650 1416T595
1375T530 1360Q467 1360 434 1393T400 1490Q400 1530 414 1564T452 1624T506 1665T570 1680Q630 1680 665 1648T700 1550ZM270 1550Q270 1511 257 1476T220 1416T165 1375T100 1360Q37 1360 4 1393T-30 1490Q-30 1530 -16 1564T22 1624T76 1665T140 1680Q200 1680
235 1648T270 1550Z" />
<glyph unicode="&#xd0;" glyph-name="Eth" horiz-adv-x="1334" d="M1253 676Q1253 551 1228 453T1158 279T1054 151T926 65T784 16T639 0H40V83Q108 97 141 113T175 144V615H50L28 639Q30 646 35 661T45 692T56 722T65 745H175V1147L40 1128L26 1230Q77 1242 148
1253T296 1272T452 1285T598 1290Q756 1290 878 1249T1083 1128T1210 935T1253 676ZM523 1176Q507 1176 490 1176T455 1174V745H690L715 722L675 615H455V190Q455 173 457 159T472 135T515 120T597 114Q651 114 713 143T829 235T917 397T953 637Q953 904 844 1040T523
1176Z" />
<glyph unicode="&#xd1;" glyph-name="Ntilde" horiz-adv-x="1369" d="M40 0V83Q113 92 144 111T175 144V1102Q143 1132 109 1152T40 1177V1260H342Q357 1260 366 1258T386 1247T407 1224T438 1182L1035 353V1115Q1035 1121 1029 1129T1008 1146T966 1163T900 1177V1260H1330V1177Q1258
1167 1227 1148T1195 1115V-30Q1140 -26 1096 -15T1017 13T957 49T916 91L335 895V144Q335 138 341 130T364 113T405 96T470 83V0H40ZM1096 1667Q1078 1626 1052 1575T992 1478T916 1401T826 1370Q780 1370 739 1386T658 1421T579 1457T500 1473Q476 1473 458 1466T424
1444T391 1409T357 1360L274 1390Q292 1431 318 1483T378 1581T453 1658T543 1690Q592 1690 635 1674T719 1639T795 1603T867 1587Q913 1587 945 1614T1012 1700L1096 1667Z" />
<glyph unicode="&#xd2;" glyph-name="Ograve" horiz-adv-x="1289" d="M933 629Q933 732 910 827T843 995T739 1111T604 1155Q538 1155 488 1121T403 1020T352 859T335 641Q335 529 360 432T428 264T530 151T654 110Q714 110 765 141T854 237T912 399T933 629ZM1218
647Q1218 556 1196 471T1133 311T1036 173T912 65T766 -5T605 -30Q477 -30 374 23T199 165T89 370T50 612Q50 748 94 871T220 1087T413 1235T663 1290Q798 1290 901 1236T1075 1091T1182 885T1218 647ZM843 1422Q829 1403 812 1384T778 1357L296 1589L307 1658Q314
1666 339 1683T393 1720T448 1756T486 1779L843 1422Z" />
<glyph unicode="&#xd3;" glyph-name="Oacute" horiz-adv-x="1289" d="M933 629Q933 732 910 827T843 995T739 1111T604 1155Q538 1155 488 1121T403 1020T352 859T335 641Q335 529 360 432T428 264T530 151T654 110Q714 110 765 141T854 237T912 399T933 629ZM1218
647Q1218 556 1196 471T1133 311T1036 173T912 65T766 -5T605 -30Q477 -30 374 23T199 165T89 370T50 612Q50 748 94 871T220 1087T413 1235T663 1290Q798 1290 901 1236T1075 1091T1182 885T1218 647ZM514 1357Q505 1361 495 1369T475 1389T455 1411T439 1432L796
1779Q823 1765 854 1747T914 1711T964 1678T994 1655L1003 1600L514 1357Z" />
<glyph unicode="&#xd4;" glyph-name="Ocircumflex" horiz-adv-x="1289" d="M933 629Q933 732 910 827T843 995T739 1111T604 1155Q538 1155 488 1121T403 1020T352 859T335 641Q335 529 360 432T428 264T530 151T654 110Q714 110 765 141T854 237T912 399T933
629ZM1218 647Q1218 556 1196 471T1133 311T1036 173T912 65T766 -5T605 -30Q477 -30 374 23T199 165T89 370T50 612Q50 748 94 871T220 1087T413 1235T663 1290Q798 1290 901 1236T1075 1091T1182 885T1218 647ZM992 1422Q980 1403 963 1384T929 1357L645 1505L364
1357Q347 1365 330 1384T299 1422L583 1751H710L992 1422Z" />
<glyph unicode="&#xd5;" glyph-name="Otilde" horiz-adv-x="1289" d="M933 629Q933 732 910 827T843 995T739 1111T604 1155Q538 1155 488 1121T403 1020T352 859T335 641Q335 529 360 432T428 264T530 151T654 110Q714 110 765 141T854 237T912 399T933 629ZM1218
647Q1218 556 1196 471T1133 311T1036 173T912 65T766 -5T605 -30Q477 -30 374 23T199 165T89 370T50 612Q50 748 94 871T220 1087T413 1235T663 1290Q798 1290 901 1236T1075 1091T1182 885T1218 647ZM1057 1667Q1039 1626 1013 1575T953 1478T877 1401T787 1370Q741
1370 700 1386T619 1421T540 1457T461 1473Q437 1473 419 1466T385 1444T352 1409T318 1360L235 1390Q253 1431 279 1483T339 1581T414 1658T504 1690Q553 1690 596 1674T680 1639T756 1603T828 1587Q874 1587 906 1614T973 1700L1057 1667Z" />
<glyph unicode="&#xd6;" glyph-name="Odieresis" horiz-adv-x="1289" d="M933 629Q933 732 910 827T843 995T739 1111T604 1155Q538 1155 488 1121T403 1020T352 859T335 641Q335 529 360 432T428 264T530 151T654 110Q714 110 765 141T854 237T912 399T933 629ZM1218
647Q1218 556 1196 471T1133 311T1036 173T912 65T766 -5T605 -30Q477 -30 374 23T199 165T89 370T50 612Q50 748 94 871T220 1087T413 1235T663 1290Q798 1290 901 1236T1075 1091T1182 885T1218 647ZM1011 1550Q1011 1511 998 1476T961 1416T906 1375T841 1360Q778
1360 745 1393T711 1490Q711 1530 725 1564T763 1624T817 1665T881 1680Q941 1680 976 1648T1011 1550ZM581 1550Q581 1511 568 1476T531 1416T476 1375T411 1360Q348 1360 315 1393T281 1490Q281 1530 295 1564T333 1624T387 1665T451 1680Q511 1680 546 1648T581
1550Z" />
<glyph unicode="&#xd7;" glyph-name="multiply" horiz-adv-x="870" d="M80 315L326 563L80 810V844Q90 848 107 856T144 871T182 885T211 895L434 671L657 895Q668 892 686 886T724 872T762 856T790 844V810L543 562L790 315V281Q780 277 762 270T724 254T686
239T659 230L435 454L211 230Q202 232 184 239T147 254T109 269T80 281V315Z" />
<glyph unicode="&#xd8;" glyph-name="Oslash" horiz-adv-x="1289" d="M933 629Q933 689 925 746T901 858L445 239Q487 178 540 144T654 110Q714 110 765 141T854 237T912 399T933 629ZM335 641Q335 576 343 517T368 403L825 1022Q782 1084 727 1119T604 1155Q538
1155 488 1121T403 1020T352 859T335 641ZM1074 1093Q1146 1002 1182 887T1218 647Q1218 556 1196 471T1133 311T1036 173T912 65T766 -5T605 -30Q520 -30 447 -7T312 59L267 -2Q258 -10 235 -18T184 -34T131 -46T93 -53L60 -15L196 169Q125 258 88 372T50 612Q50
748 94 871T220 1087T413 1235T663 1290Q750 1290 823 1267T957 1202L1003 1264Q1017 1272 1040 1280T1087 1295T1136 1306T1175 1313L1208 1275L1074 1093Z" />
<glyph unicode="&#xd9;" glyph-name="Ugrave" horiz-adv-x="1379" d="M1325 1177Q1257 1163 1224 1146T1190 1115V524Q1190 393 1152 290T1046 116T886 8T686 -30Q583 -30 490 -2T327 85T216 233T175 444V1115Q175 1127 144 1145T40 1177V1260H590V1177Q522 1163
489 1146T455 1115V514Q455 418 470 345T519 224T611 150T755 125Q826 125 873 156T949 239T988 360T1000 503V1115Q1000 1127 969 1145T865 1177V1260H1325V1177ZM894 1422Q880 1403 863 1384T829 1357L347 1589L358 1658Q365 1666 390 1683T444 1720T499 1756T537
1779L894 1422Z" />
<glyph unicode="&#xda;" glyph-name="Uacute" horiz-adv-x="1379" d="M1325 1177Q1257 1163 1224 1146T1190 1115V524Q1190 393 1152 290T1046 116T886 8T686 -30Q583 -30 490 -2T327 85T216 233T175 444V1115Q175 1127 144 1145T40 1177V1260H590V1177Q522 1163
489 1146T455 1115V514Q455 418 470 345T519 224T611 150T755 125Q826 125 873 156T949 239T988 360T1000 503V1115Q1000 1127 969 1145T865 1177V1260H1325V1177ZM565 1357Q556 1361 546 1369T526 1389T506 1411T490 1432L847 1779Q874 1765 905 1747T965 1711T1015
1678T1045 1655L1054 1600L565 1357Z" />
<glyph unicode="&#xdb;" glyph-name="Ucircumflex" horiz-adv-x="1379" d="M1325 1177Q1257 1163 1224 1146T1190 1115V524Q1190 393 1152 290T1046 116T886 8T686 -30Q583 -30 490 -2T327 85T216 233T175 444V1115Q175 1127 144 1145T40 1177V1260H590V1177Q522
1163 489 1146T455 1115V514Q455 418 470 345T519 224T611 150T755 125Q826 125 873 156T949 239T988 360T1000 503V1115Q1000 1127 969 1145T865 1177V1260H1325V1177ZM1043 1422Q1031 1403 1014 1384T980 1357L696 1505L415 1357Q398 1365 381 1384T350 1422L634
1751H761L1043 1422Z" />
<glyph unicode="&#xdc;" glyph-name="Udieresis" horiz-adv-x="1379" d="M1325 1177Q1257 1163 1224 1146T1190 1115V524Q1190 393 1152 290T1046 116T886 8T686 -30Q583 -30 490 -2T327 85T216 233T175 444V1115Q175 1127 144 1145T40 1177V1260H590V1177Q522
1163 489 1146T455 1115V514Q455 418 470 345T519 224T611 150T755 125Q826 125 873 156T949 239T988 360T1000 503V1115Q1000 1127 969 1145T865 1177V1260H1325V1177ZM1062 1550Q1062 1511 1049 1476T1012 1416T957 1375T892 1360Q829 1360 796 1393T762 1490Q762
1530 776 1564T814 1624T868 1665T932 1680Q992 1680 1027 1648T1062 1550ZM632 1550Q632 1511 619 1476T582 1416T527 1375T462 1360Q399 1360 366 1393T332 1490Q332 1530 346 1564T384 1624T438 1665T502 1680Q562 1680 597 1648T632 1550Z" />
<glyph unicode="&#xdd;" glyph-name="Yacute" horiz-adv-x="1267" d="M340 0V83Q385 92 415 102T462 121T487 139T494 155V527Q458 606 414 690T325 852T237 997T158 1111Q149 1122 140 1130T114 1144T72 1153T4 1156L0 1239Q29 1243 68 1248T148 1258T223 1266T279
1270Q308 1270 339 1257T387 1221Q424 1171 464 1107T544 972T624 826T699 678L921 1111Q936 1137 912 1152T810 1177V1260H1236V1177Q1202 1171 1178 1165T1136 1151T1108 1134T1090 1111L774 515V155Q774 149 781 141T805 122T853 102T930 83V0H340ZM502 1357Q493
1361 483 1369T463 1389T443 1411T427 1432L784 1779Q811 1765 842 1747T902 1711T952 1678T982 1655L991 1600L502 1357Z" />
<glyph unicode="&#xde;" glyph-name="Thorn" horiz-adv-x="1191" d="M39 0V83Q107 97 141 113T175 144V1115Q175 1127 143 1145T39 1177V1260H620V1177Q569 1168 537 1160T486 1145T462 1130T455 1115V1026Q490 1028 524 1029T590 1030Q709 1030 807 1007T975
939T1083 828T1122 676Q1122 572 1081 493T977 361T838 282T693 255Q647 255 602 262T522 285L489 400Q530 381 559 376T623 370Q665 370 704 385T772 432T819 514T837 635Q837 702 816 754T755 841T659 895T533 914Q515 914 496 914T455 912V144Q455 138 461 131T485
116T535 100T620 83V0H39Z" />
<glyph unicode="&#xdf;" glyph-name="germandbls" horiz-adv-x="1332" d="M1292 283Q1292 217 1266 160T1188 61T1059 -5T879 -30Q833 -30 785 -22T695 -3T624 21T587 43Q581 50 578 73T575 129T575 198T578 266T585 322T594 353L687 342Q713 223 772 162T908
100Q971 100 1006 125T1042 207Q1042 253 1023 287T971 349T897 400T813 446T728 494T655 553T603 629T583 729Q583 789 607 828T666 895T744 943T821 988T881 1043T905 1122Q905 1188 886 1238T832 1324T749 1377T645 1395Q604 1395 568 1379T504 1319T461 1198T445
996V0H45V83Q113 95 144 112T175 142V941Q175 1061 200 1147T265 1295T349 1394T433 1458Q493 1496 574 1523T743 1550Q842 1550 922 1519T1058 1436T1146 1321T1177 1190Q1177 1108 1152 1056T1088 971T1005 917T922 877T859 834T833 770Q833 723 867 690T952
629T1062 573T1173 507T1258 415T1292 283Z" />
<glyph unicode="&#xe0;" glyph-name="agrave" horiz-adv-x="1050" d="M432 160Q447 160 465 163T505 176T557 206T623 257V466Q570 457 534 449T472 433T431 414T402 392Q376 366 360 338T344 269Q344 237 353 216T375 183T403 165T432 160ZM1046 122Q1004 93
956 66T862 17T779 -17T722 -30Q684 -30 657 11T624 125Q579 80 534 50T446 2T364 -23T293 -30Q249 -30 208 -15T133 30T80 104T60 206Q60 271 84 317T145 401Q169 425 200 447T285 491T419 532T623 571V682Q623 712 618 737T599 781T562 809T505 820Q484 820 463
812T425 787T399 748T392 694Q393 688 374 679T326 659T261 638T193 621T135 609T102 607L78 666Q103 729 156 782T281 875T438 937T614 960Q687 960 740 941T827 888T877 809T893 712V258Q893 216 904 198T933 180Q940 180 947 181T964 185T987 193T1021 207L1046
122ZM702 1088Q696 1082 683 1075T656 1060T629 1046T606 1037L214 1414L246 1475Q252 1477 270 1480T314 1489T366 1499T419 1508T464 1515L492 1519L702 1088Z" />
<glyph unicode="&#xe1;" glyph-name="aacute" horiz-adv-x="1050" d="M432 160Q447 160 465 163T505 176T557 206T623 257V466Q570 457 534 449T472 433T431 414T402 392Q376 366 360 338T344 269Q344 237 353 216T375 183T403 165T432 160ZM1046 122Q1004 93
956 66T862 17T779 -17T722 -30Q684 -30 657 11T624 125Q579 80 534 50T446 2T364 -23T293 -30Q249 -30 208 -15T133 30T80 104T60 206Q60 271 84 317T145 401Q169 425 200 447T285 491T419 532T623 571V682Q623 712 618 737T599 781T562 809T505 820Q484 820 463
812T425 787T399 748T392 694Q393 688 374 679T326 659T261 638T193 621T135 609T102 607L78 666Q103 729 156 782T281 875T438 937T614 960Q687 960 740 941T827 888T877 809T893 712V258Q893 216 904 198T933 180Q940 180 947 181T964 185T987 193T1021 207L1046
122ZM460 1037Q451 1038 437 1044T409 1057T382 1072T363 1085L567 1519Q575 1518 594 1516T640 1509T695 1500T749 1491T795 1482T822 1476L855 1417L460 1037Z" />
<glyph unicode="&#xe2;" glyph-name="acircumflex" horiz-adv-x="1050" d="M432 160Q447 160 465 163T505 176T557 206T623 257V466Q570 457 534 449T472 433T431 414T402 392Q376 366 360 338T344 269Q344 237 353 216T375 183T403 165T432 160ZM1046 122Q1004
93 956 66T862 17T779 -17T722 -30Q684 -30 657 11T624 125Q579 80 534 50T446 2T364 -23T293 -30Q249 -30 208 -15T133 30T80 104T60 206Q60 271 84 317T145 401Q169 425 200 447T285 491T419 532T623 571V682Q623 712 618 737T599 781T562 809T505 820Q484 820
463 812T425 787T399 748T392 694Q393 688 374 679T326 659T261 638T193 621T135 609T102 607L78 666Q103 729 156 782T281 875T438 937T614 960Q687 960 740 941T827 888T877 809T893 712V258Q893 216 904 198T933 180Q940 180 947 181T964 185T987 193T1021 207L1046
122ZM873 1112Q861 1093 844 1069T810 1037L526 1245L245 1037Q237 1041 227 1049T207 1069T187 1091T170 1112L454 1501H601L873 1112Z" />
<glyph unicode="&#xe3;" glyph-name="atilde" horiz-adv-x="1050" d="M432 160Q447 160 465 163T505 176T557 206T623 257V466Q570 457 534 449T472 433T431 414T402 392Q376 366 360 338T344 269Q344 237 353 216T375 183T403 165T432 160ZM1046 122Q1004 93
956 66T862 17T779 -17T722 -30Q684 -30 657 11T624 125Q579 80 534 50T446 2T364 -23T293 -30Q249 -30 208 -15T133 30T80 104T60 206Q60 271 84 317T145 401Q169 425 200 447T285 491T419 532T623 571V682Q623 712 618 737T599 781T562 809T505 820Q484 820 463
812T425 787T399 748T392 694Q393 688 374 679T326 659T261 638T193 621T135 609T102 607L78 666Q103 729 156 782T281 875T438 937T614 960Q687 960 740 941T827 888T877 809T893 712V258Q893 216 904 198T933 180Q940 180 947 181T964 185T987 193T1021 207L1046
122ZM937 1387Q919 1346 893 1295T833 1198T757 1121T667 1090Q621 1090 580 1106T499 1141T420 1177T341 1193Q317 1193 299 1186T265 1164T232 1129T198 1080L115 1110Q133 1151 159 1203T219 1301T294 1378T384 1410Q433 1410 476 1394T560 1359T636 1323T708
1307Q754 1307 786 1334T853 1420L937 1387Z" />
<glyph unicode="&#xe4;" glyph-name="adieresis" horiz-adv-x="1050" d="M432 160Q447 160 465 163T505 176T557 206T623 257V466Q570 457 534 449T472 433T431 414T402 392Q376 366 360 338T344 269Q344 237 353 216T375 183T403 165T432 160ZM1046 122Q1004
93 956 66T862 17T779 -17T722 -30Q684 -30 657 11T624 125Q579 80 534 50T446 2T364 -23T293 -30Q249 -30 208 -15T133 30T80 104T60 206Q60 271 84 317T145 401Q169 425 200 447T285 491T419 532T623 571V682Q623 712 618 737T599 781T562 809T505 820Q484 820
463 812T425 787T399 748T392 694Q393 688 374 679T326 659T261 638T193 621T135 609T102 607L78 666Q103 729 156 782T281 875T438 937T614 960Q687 960 740 941T827 888T877 809T893 712V258Q893 216 904 198T933 180Q940 180 947 181T964 185T987 193T1021 207L1046
122ZM891 1270Q891 1231 878 1196T841 1136T786 1095T721 1080Q658 1080 625 1113T591 1210Q591 1250 605 1284T643 1344T697 1385T761 1400Q821 1400 856 1368T891 1270ZM461 1270Q461 1231 448 1196T411 1136T356 1095T291 1080Q228 1080 195 1113T161 1210Q161
1250 175 1284T213 1344T267 1385T331 1400Q391 1400 426 1368T461 1270Z" />
<glyph unicode="&#xe5;" glyph-name="aring" horiz-adv-x="1050" d="M432 160Q447 160 465 163T505 176T557 206T623 257V466Q570 457 534 449T472 433T431 414T402 392Q376 366 360 338T344 269Q344 237 353 216T375 183T403 165T432 160ZM1046 122Q1004 93 956
66T862 17T779 -17T722 -30Q684 -30 657 11T624 125Q579 80 534 50T446 2T364 -23T293 -30Q249 -30 208 -15T133 30T80 104T60 206Q60 271 84 317T145 401Q169 425 200 447T285 491T419 532T623 571V682Q623 712 618 737T599 781T562 809T505 820Q484 820 463 812T425
787T399 748T392 694Q393 688 374 679T326 659T261 638T193 621T135 609T102 607L78 666Q103 729 156 782T281 875T438 937T614 960Q687 960 740 941T827 888T877 809T893 712V258Q893 216 904 198T933 180Q940 180 947 181T964 185T987 193T1021 207L1046 122ZM592
1243Q592 1267 587 1284T573 1312T555 1329T536 1334Q515 1334 501 1326T477 1305T464 1276T460 1245Q460 1222 465 1206T479 1178T497 1162T516 1156Q556 1156 574 1182T592 1243ZM742 1284Q742 1230 722 1182T668 1098T589 1041T495 1020Q454 1020 420 1032T362
1069T324 1127T310 1204Q310 1259 330 1307T383 1392T462 1449T557 1470Q645 1470 693 1419T742 1284Z" />
<glyph unicode="&#xe6;" glyph-name="ae" horiz-adv-x="1529" d="M1068 840Q1044 840 1017 832T965 797T920 719T891 580H1185Q1206 580 1214 587T1223 616Q1223 671 1211 713T1177 783T1128 825T1068 840ZM648 271Q642 293 639 316T635 365V456Q599 454 567 453T526
450Q467 438 430 418T371 373T342 322T334 269Q334 240 343 220T366 186T397 167T432 160Q477 160 530 182T648 271ZM1469 547Q1459 537 1442 525T1405 500T1364 477T1327 460H885V448Q885 405 899 354T943 257T1016 182T1120 152Q1151 152 1182 158T1248 177T1320
213T1404 266Q1410 263 1419 253T1436 231T1452 209T1461 195Q1401 131 1350 88T1249 19T1146 -19T1026 -30Q984 -30 937 -16T845 26T758 92T687 181Q595 67 496 19T293 -30Q257 -30 216 -18T141 22T83 95T60 206Q60 265 82 319T151 418T273 500T453 560Q466 563
486 565T530 570T581 573T635 576V652Q635 698 627 730T603 782T566 811T517 820Q493 820 467 812T421 788T390 749T386 696Q387 689 369 680T323 660T259 639T192 622T135 611T102 609L78 665Q103 722 142 766T228 843T327 898T429 934T525 954T605 960Q676 960
732 940T826 869Q892 919 964 939T1097 960Q1185 960 1254 927T1371 836T1444 704T1469 547Z" />
<glyph unicode="&#xe7;" glyph-name="ccedilla" horiz-adv-x="945" d="M728 -229Q728 -266 698 -301T616 -366T496 -416T350 -444L308 -365Q389 -354 424 -326T460 -266Q460 -232 438 -217T377 -199Q378 -198 381 -194Q385 -190 394 -170T419 -106Q430 -76 445
-28Q383 -22 324 2Q247 35 189 96T95 245T60 444Q60 552 100 646T212 809T386 919T610 960Q643 960 687 955T773 939T852 914T905 881Q906 873 902 851T891 799T873 736T853 672T834 619T818 587L741 597Q722 657 702 700T658 773T605 816T540 830Q499 830 461
811T394 750T348 641T330 475Q330 397 348 337T400 235T479 172T577 150Q605 150 632 153T690 169T760 203T851 261L910 190Q845 117 788 74T679 7Q629 -15 583 -22L558 -84Q728 -114 728 -229Z" />
<glyph unicode="&#xe8;" glyph-name="egrave" horiz-adv-x="1006" d="M516 835Q471 835 440 818T389 767T357 687T342 580H644Q667 580 674 587T682 616Q682 647 674 685T646 756T594 812T516 835ZM946 547Q937 537 919 525T878 500T834 477T796 460H340Q343 391
359 334T405 236T478 173T576 150Q607 150 637 153T701 169T779 204T883 266Q889 263 898 253T915 231T931 209T940 195Q869 126 813 82T705 13T601 -21T485 -30Q397 -30 320 4T185 101T94 251T60 444Q60 580 109 682T261 861Q317 903 393 931T554 960Q652 960
725 928T848 840T921 709T946 547ZM720 1088Q714 1082 701 1075T674 1060T647 1046T624 1037L232 1414L264 1475Q270 1477 288 1480T332 1489T384 1499T437 1508T482 1515L510 1519L720 1088Z" />
<glyph unicode="&#xe9;" glyph-name="eacute" horiz-adv-x="1006" d="M516 835Q471 835 440 818T389 767T357 687T342 580H644Q667 580 674 587T682 616Q682 647 674 685T646 756T594 812T516 835ZM946 547Q937 537 919 525T878 500T834 477T796 460H340Q343 391
359 334T405 236T478 173T576 150Q607 150 637 153T701 169T779 204T883 266Q889 263 898 253T915 231T931 209T940 195Q869 126 813 82T705 13T601 -21T485 -30Q397 -30 320 4T185 101T94 251T60 444Q60 580 109 682T261 861Q317 903 393 931T554 960Q652 960
725 928T848 840T921 709T946 547ZM478 1037Q469 1038 455 1044T427 1057T400 1072T381 1085L585 1519Q593 1518 612 1516T658 1509T713 1500T767 1491T813 1482T840 1476L873 1417L478 1037Z" />
<glyph unicode="&#xea;" glyph-name="ecircumflex" horiz-adv-x="1006" d="M516 835Q471 835 440 818T389 767T357 687T342 580H644Q667 580 674 587T682 616Q682 647 674 685T646 756T594 812T516 835ZM946 547Q937 537 919 525T878 500T834 477T796 460H340Q343
391 359 334T405 236T478 173T576 150Q607 150 637 153T701 169T779 204T883 266Q889 263 898 253T915 231T931 209T940 195Q869 126 813 82T705 13T601 -21T485 -30Q397 -30 320 4T185 101T94 251T60 444Q60 580 109 682T261 861Q317 903 393 931T554 960Q652
960 725 928T848 840T921 709T946 547ZM891 1112Q879 1093 862 1069T828 1037L544 1245L263 1037Q255 1041 245 1049T225 1069T205 1091T188 1112L472 1501H619L891 1112Z" />
<glyph unicode="&#xeb;" glyph-name="edieresis" horiz-adv-x="1006" d="M516 835Q471 835 440 818T389 767T357 687T342 580H644Q667 580 674 587T682 616Q682 647 674 685T646 756T594 812T516 835ZM946 547Q937 537 919 525T878 500T834 477T796 460H340Q343
391 359 334T405 236T478 173T576 150Q607 150 637 153T701 169T779 204T883 266Q889 263 898 253T915 231T931 209T940 195Q869 126 813 82T705 13T601 -21T485 -30Q397 -30 320 4T185 101T94 251T60 444Q60 580 109 682T261 861Q317 903 393 931T554 960Q652
960 725 928T848 840T921 709T946 547ZM909 1270Q909 1231 896 1196T859 1136T804 1095T739 1080Q676 1080 643 1113T609 1210Q609 1250 623 1284T661 1344T715 1385T779 1400Q839 1400 874 1368T909 1270ZM479 1270Q479 1231 466 1196T429 1136T374 1095T309 1080Q246
1080 213 1113T179 1210Q179 1250 193 1284T231 1344T285 1385T349 1400Q409 1400 444 1368T479 1270Z" />
<glyph unicode="&#xec;" glyph-name="igrave" horiz-adv-x="635" d="M60 0V83Q128 97 159 113T190 144V640Q190 691 190 722T178 771T140 797T60 810V890Q154 902 233 918T386 960H460V144Q460 132 488 115T590 83V0H60ZM501 1088Q495 1082 482 1075T455 1060T428
1046T405 1037L13 1414L45 1475Q51 1477 69 1480T113 1489T165 1499T218 1508T263 1515L291 1519L501 1088Z" />
<glyph unicode="&#xed;" glyph-name="iacute" horiz-adv-x="635" d="M60 0V83Q128 97 159 113T190 144V640Q190 691 190 722T178 771T140 797T60 810V890Q154 902 233 918T386 960H460V144Q460 132 488 115T590 83V0H60ZM259 1037Q250 1038 236 1044T208 1057T181
1072T162 1085L366 1519Q374 1518 393 1516T439 1509T494 1500T548 1491T594 1482T621 1476L654 1417L259 1037Z" />
<glyph unicode="&#xee;" glyph-name="icircumflex" horiz-adv-x="635" d="M60 0V83Q128 97 159 113T190 144V640Q190 691 190 722T178 771T140 797T60 810V890Q154 902 233 918T386 960H460V144Q460 132 488 115T590 83V0H60ZM672 1112Q660 1093 643 1069T609
1037L325 1245L44 1037Q36 1041 26 1049T6 1069T-14 1091T-31 1112L253 1501H400L672 1112Z" />
<glyph unicode="&#xef;" glyph-name="idieresis" horiz-adv-x="635" d="M60 0V83Q128 97 159 113T190 144V640Q190 691 190 722T178 771T140 797T60 810V890Q154 902 233 918T386 960H460V144Q460 132 488 115T590 83V0H60ZM690 1270Q690 1231 677 1196T640 1136T585
1095T520 1080Q457 1080 424 1113T390 1210Q390 1250 404 1284T442 1344T496 1385T560 1400Q620 1400 655 1368T690 1270ZM260 1270Q260 1231 247 1196T210 1136T155 1095T90 1080Q27 1080 -6 1113T-40 1210Q-40 1250 -26 1284T12 1344T66 1385T130 1400Q190 1400
225 1368T260 1270Z" />
<glyph unicode="&#xf0;" glyph-name="eth" horiz-adv-x="1055" d="M725 621Q710 673 683 710T624 772T558 808T495 820Q414 820 375 737T335 493Q335 414 350 343T392 217T456 132T536 100Q591 100 627 127T685 212T716 359T725 571V621ZM995 612Q995 497 973
405T914 241T829 118T728 34T624 -14T526 -30Q417 -30 331 6T184 105T92 255T60 444Q60 543 92 636T182 801T323 916T506 960Q627 960 702 884Q693 919 683 951T657 1014T620 1076T570 1141L364 1057Q326 1058 294 1061T227 1075L216 1122L480 1231Q424 1270 349
1290T186 1297L171 1378L462 1480Q489 1462 518 1442T576 1400T631 1357T678 1317L858 1390Q906 1386 939 1382T998 1368L1005 1323L766 1226Q829 1155 872 1081T943 931T983 774T995 612Z" />
<glyph unicode="&#xf1;" glyph-name="ntilde" horiz-adv-x="1210" d="M660 0V83Q732 102 761 116T790 144V573Q790 626 785 662T769 719T739 750T692 760Q671 760 648 757T596 744T530 716T445 669V144Q445 129 477 113T575 83V0H45V83Q111 100 143 113T175 144V681Q175
720 174 743T161 779T123 798T45 810V890Q97 895 142 901T228 916T307 935T385 960L430 915L441 806Q504 850 559 879T663 927T756 952T839 960Q882 960 922 946T992 901T1041 818T1060 691V144Q1060 137 1065 131T1085 117T1125 102T1190 83V0H660ZM1028 1387Q1010
1346 984 1295T924 1198T848 1121T758 1090Q712 1090 671 1106T590 1141T511 1177T432 1193Q408 1193 390 1186T356 1164T323 1129T289 1080L206 1110Q224 1151 250 1203T310 1301T385 1378T475 1410Q524 1410 567 1394T651 1359T727 1323T799 1307Q845 1307 877
1334T944 1420L1028 1387Z" />
<glyph unicode="&#xf2;" glyph-name="ograve" horiz-adv-x="1090" d="M745 435Q745 514 732 585T692 711T627 798T536 830Q479 830 442 803T384 728T354 615T345 473Q345 394 360 326T403 208T469 129T554 100Q610 100 647 121T705 185T736 290T745 435ZM1030
485Q1030 418 1012 354T960 233T881 128T778 44T658 -10T526 -30Q420 -30 334 6T187 105T93 255T60 444Q60 510 76 574T124 695T200 801T301 885T423 940T565 960Q670 960 756 924T903 825T997 674T1030 485ZM743 1088Q737 1082 724 1075T697 1060T670 1046T647
1037L255 1414L287 1475Q293 1477 311 1480T355 1489T407 1499T460 1508T505 1515L533 1519L743 1088Z" />
<glyph unicode="&#xf3;" glyph-name="oacute" horiz-adv-x="1090" d="M745 435Q745 514 732 585T692 711T627 798T536 830Q479 830 442 803T384 728T354 615T345 473Q345 394 360 326T403 208T469 129T554 100Q610 100 647 121T705 185T736 290T745 435ZM1030
485Q1030 418 1012 354T960 233T881 128T778 44T658 -10T526 -30Q420 -30 334 6T187 105T93 255T60 444Q60 510 76 574T124 695T200 801T301 885T423 940T565 960Q670 960 756 924T903 825T997 674T1030 485ZM501 1037Q492 1038 478 1044T450 1057T423 1072T404
1085L608 1519Q616 1518 635 1516T681 1509T736 1500T790 1491T836 1482T863 1476L896 1417L501 1037Z" />
<glyph unicode="&#xf4;" glyph-name="ocircumflex" horiz-adv-x="1090" d="M745 435Q745 514 732 585T692 711T627 798T536 830Q479 830 442 803T384 728T354 615T345 473Q345 394 360 326T403 208T469 129T554 100Q610 100 647 121T705 185T736 290T745 435ZM1030
485Q1030 418 1012 354T960 233T881 128T778 44T658 -10T526 -30Q420 -30 334 6T187 105T93 255T60 444Q60 510 76 574T124 695T200 801T301 885T423 940T565 960Q670 960 756 924T903 825T997 674T1030 485ZM914 1112Q902 1093 885 1069T851 1037L567 1245L286
1037Q278 1041 268 1049T248 1069T228 1091T211 1112L495 1501H642L914 1112Z" />
<glyph unicode="&#xf5;" glyph-name="otilde" horiz-adv-x="1090" d="M745 435Q745 514 732 585T692 711T627 798T536 830Q479 830 442 803T384 728T354 615T345 473Q345 394 360 326T403 208T469 129T554 100Q610 100 647 121T705 185T736 290T745 435ZM1030
485Q1030 418 1012 354T960 233T881 128T778 44T658 -10T526 -30Q420 -30 334 6T187 105T93 255T60 444Q60 510 76 574T124 695T200 801T301 885T423 940T565 960Q670 960 756 924T903 825T997 674T1030 485ZM978 1387Q960 1346 934 1295T874 1198T798 1121T708
1090Q662 1090 621 1106T540 1141T461 1177T382 1193Q358 1193 340 1186T306 1164T273 1129T239 1080L156 1110Q174 1151 200 1203T260 1301T335 1378T425 1410Q474 1410 517 1394T601 1359T677 1323T749 1307Q795 1307 827 1334T894 1420L978 1387Z" />
<glyph unicode="&#xf6;" glyph-name="odieresis" horiz-adv-x="1090" d="M745 435Q745 514 732 585T692 711T627 798T536 830Q479 830 442 803T384 728T354 615T345 473Q345 394 360 326T403 208T469 129T554 100Q610 100 647 121T705 185T736 290T745 435ZM1030
485Q1030 418 1012 354T960 233T881 128T778 44T658 -10T526 -30Q420 -30 334 6T187 105T93 255T60 444Q60 510 76 574T124 695T200 801T301 885T423 940T565 960Q670 960 756 924T903 825T997 674T1030 485ZM932 1270Q932 1231 919 1196T882 1136T827 1095T762
1080Q699 1080 666 1113T632 1210Q632 1250 646 1284T684 1344T738 1385T802 1400Q862 1400 897 1368T932 1270ZM502 1270Q502 1231 489 1196T452 1136T397 1095T332 1080Q269 1080 236 1113T202 1210Q202 1250 216 1284T254 1344T308 1385T372 1400Q432 1400 467
1368T502 1270Z" />
<glyph unicode="&#xf7;" glyph-name="divide" horiz-adv-x="870" d="M551 319Q551 288 541 260T514 211T473 178T422 166Q372 166 350 194T328 274Q328 305 338 333T365 381T406 413T457 425Q551 425 551 319ZM551 853Q551 822 541 794T514 745T473 712T422 700Q372
700 350 728T328 808Q328 839 338 867T365 915T406 947T457 959Q551 959 551 853ZM820 606Q817 595 810 578T795 543T780 509T769 485H85L50 519Q53 530 59 546T73 580T88 614T101 640H785L820 606Z" />
<glyph unicode="&#xf8;" glyph-name="oslash" horiz-adv-x="1090" d="M747 435Q747 473 742 517T730 596L411 192Q438 153 475 127T554 100Q610 100 647 121T706 185T738 290T747 435ZM343 473Q343 439 347 399T356 330L678 741Q652 779 615 804T536 830Q479 830
442 803T382 728T352 615T343 473ZM1014 952L909 819Q964 756 997 669T1030 485Q1030 418 1012 354T960 233T881 128T778 44T658 -10T526 -30Q460 -30 397 -14T284 29L271 13Q262 5 241 -4T194 -23T145 -41T104 -53L78 -23L183 110Q127 173 94 260T60 444Q60 510
76 574T124 695T200 801T301 885T423 940T565 960Q631 960 692 944T803 901L816 915Q829 924 850 934T895 954T942 971T984 983L1014 952Z" />
<glyph unicode="&#xf9;" glyph-name="ugrave" horiz-adv-x="1175" d="M1169 122Q1132 98 1084 71T990 22T908 -15T860 -30Q842 -30 825 -25T792 -4T764 44T745 126Q683 75 635 44T546 -3T473 -25T408 -30Q361 -30 315 -17T233 30T173 125T150 279V681Q150 729
149 755T137 795T102 814T31 824V904Q86 908 131 912T217 923T298 938T382 960L420 911V344Q420 285 427 249T447 193T479 167T523 160Q540 160 562 164T611 179T671 210T745 262V681Q745 726 742 753T726 795T687 816T615 824V904Q725 913 811 927T975 960L1015
911V294Q1015 263 1016 244T1019 213T1026 195T1038 184Q1044 180 1051 179T1069 180T1096 189T1139 207L1169 122ZM764 1088Q758 1082 745 1075T718 1060T691 1046T668 1037L276 1414L308 1475Q314 1477 332 1480T376 1489T428 1499T481 1508T526 1515L554 1519L764
1088Z" />
<glyph unicode="&#xfa;" glyph-name="uacute" horiz-adv-x="1175" d="M1169 122Q1132 98 1084 71T990 22T908 -15T860 -30Q842 -30 825 -25T792 -4T764 44T745 126Q683 75 635 44T546 -3T473 -25T408 -30Q361 -30 315 -17T233 30T173 125T150 279V681Q150 729
149 755T137 795T102 814T31 824V904Q86 908 131 912T217 923T298 938T382 960L420 911V344Q420 285 427 249T447 193T479 167T523 160Q540 160 562 164T611 179T671 210T745 262V681Q745 726 742 753T726 795T687 816T615 824V904Q725 913 811 927T975 960L1015
911V294Q1015 263 1016 244T1019 213T1026 195T1038 184Q1044 180 1051 179T1069 180T1096 189T1139 207L1169 122ZM522 1037Q513 1038 499 1044T471 1057T444 1072T425 1085L629 1519Q637 1518 656 1516T702 1509T757 1500T811 1491T857 1482T884 1476L917 1417L522
1037Z" />
<glyph unicode="&#xfb;" glyph-name="ucircumflex" horiz-adv-x="1175" d="M1169 122Q1132 98 1084 71T990 22T908 -15T860 -30Q842 -30 825 -25T792 -4T764 44T745 126Q683 75 635 44T546 -3T473 -25T408 -30Q361 -30 315 -17T233 30T173 125T150 279V681Q150
729 149 755T137 795T102 814T31 824V904Q86 908 131 912T217 923T298 938T382 960L420 911V344Q420 285 427 249T447 193T479 167T523 160Q540 160 562 164T611 179T671 210T745 262V681Q745 726 742 753T726 795T687 816T615 824V904Q725 913 811 927T975 960L1015
911V294Q1015 263 1016 244T1019 213T1026 195T1038 184Q1044 180 1051 179T1069 180T1096 189T1139 207L1169 122ZM935 1112Q923 1093 906 1069T872 1037L588 1245L307 1037Q299 1041 289 1049T269 1069T249 1091T232 1112L516 1501H663L935 1112Z" />
<glyph unicode="&#xfc;" glyph-name="udieresis" horiz-adv-x="1175" d="M1169 122Q1132 98 1084 71T990 22T908 -15T860 -30Q842 -30 825 -25T792 -4T764 44T745 126Q683 75 635 44T546 -3T473 -25T408 -30Q361 -30 315 -17T233 30T173 125T150 279V681Q150 729
149 755T137 795T102 814T31 824V904Q86 908 131 912T217 923T298 938T382 960L420 911V344Q420 285 427 249T447 193T479 167T523 160Q540 160 562 164T611 179T671 210T745 262V681Q745 726 742 753T726 795T687 816T615 824V904Q725 913 811 927T975 960L1015
911V294Q1015 263 1016 244T1019 213T1026 195T1038 184Q1044 180 1051 179T1069 180T1096 189T1139 207L1169 122ZM953 1270Q953 1231 940 1196T903 1136T848 1095T783 1080Q720 1080 687 1113T653 1210Q653 1250 667 1284T705 1344T759 1385T823 1400Q883 1400
918 1368T953 1270ZM523 1270Q523 1231 510 1196T473 1136T418 1095T353 1080Q290 1080 257 1113T223 1210Q223 1250 237 1284T275 1344T329 1385T393 1400Q453 1400 488 1368T523 1270Z" />
<glyph unicode="&#xfd;" glyph-name="yacute" horiz-adv-x="1050" d="M1039 847Q1009 840 990 834T960 821T942 804T929 779L595 -72Q552 -182 503 -261T397 -391T278 -466T147 -490Q109 -490 71 -482T2 -463T-48 -439T-67 -417Q-67 -407 -49 -379T-5 -320T47
-260T90 -222Q141 -257 192 -265T280 -260Q298 -254 317 -243T356 -213T393 -165T430 -92L459 -23L121 779Q110 806 85 821T10 847V930H486V847Q447 842 427 837T400 824T394 806T403 779L596 322L780 779Q786 794 789 804T787 822T765 835T715 847V930H1039V847ZM482
1037Q473 1038 459 1044T431 1057T404 1072T385 1085L589 1519Q597 1518 616 1516T662 1509T717 1500T771 1491T817 1482T844 1476L877 1417L482 1037Z" />
<glyph unicode="&#xfe;" glyph-name="thorn" horiz-adv-x="1165" d="M850 436Q851 526 833 590T783 695T713 755T633 775Q615 775 600 774T565 765T517 742T445 700V233Q501 203 541 186T611 161T664 152T711 150Q779 151 815 226T850 436ZM1105 512Q1105 443
1088 377T1041 250T972 138T891 50T805 -9T723 -30Q694 -30 664 -25T601 -7T530 26T445 78V-335Q445 -351 482 -367T614 -397V-480H45V-397Q111 -381 143 -367T175 -335V1261Q175 1304 171 1328T153 1364T114 1380T45 1390V1470Q109 1477 157 1485T246 1503T323
1524T400 1550L445 1505V817Q502 862 549 890T636 933T708 954T770 960Q838 960 899 932T1005 847T1078 707T1105 512Z" />
<glyph unicode="&#xff;" glyph-name="ydieresis" horiz-adv-x="1050" d="M1039 847Q1009 840 990 834T960 821T942 804T929 779L595 -72Q552 -182 503 -261T397 -391T278 -466T147 -490Q109 -490 71 -482T2 -463T-48 -439T-67 -417Q-67 -407 -49 -379T-5 -320T47
-260T90 -222Q141 -257 192 -265T280 -260Q298 -254 317 -243T356 -213T393 -165T430 -92L459 -23L121 779Q110 806 85 821T10 847V930H486V847Q447 842 427 837T400 824T394 806T403 779L596 322L780 779Q786 794 789 804T787 822T765 835T715 847V930H1039V847ZM913
1270Q913 1231 900 1196T863 1136T808 1095T743 1080Q680 1080 647 1113T613 1210Q613 1250 627 1284T665 1344T719 1385T783 1400Q843 1400 878 1368T913 1270ZM483 1270Q483 1231 470 1196T433 1136T378 1095T313 1080Q250 1080 217 1113T183 1210Q183 1250 197
1284T235 1344T289 1385T353 1400Q413 1400 448 1368T483 1270Z" />
<glyph unicode="&#x2013;" glyph-name="endash" horiz-adv-x="1000" d="M950 556Q947 545 940 528T925 493T910 459T899 435H85L50 469Q53 480 59 496T73 530T88 564T101 590H915L950 556Z" />
<glyph unicode="&#x2014;" glyph-name="emdash" horiz-adv-x="1670" d="M1620 556Q1617 545 1610 528T1595 493T1580 459T1569 435H85L50 469Q53 480 59 496T73 530T88 564T101 590H1585L1620 556Z" />
<glyph unicode="&#x2018;" glyph-name="quoteleft" horiz-adv-x="549" d="M478 931Q472 923 451 911T400 887T336 862T271 840T214 825T177 821Q120 862 94 915T67 1038Q67 1099 88 1159T145 1274T226 1373T320 1450L393 1395Q358 1347 334 1284T309 1148Q309
1089 349 1054T462 1016L478 931Z" />
<glyph unicode="&#x2019;" glyph-name="quoteright" horiz-adv-x="551" d="M479 1228Q479 1167 458 1107T401 992T320 893T226 816L153 871Q188 919 212 982T237 1118Q237 1177 197 1212T84 1250L68 1335Q74 1343 95 1355T146 1379T210 1404T275 1426T332 1441T369
1445Q426 1404 452 1351T479 1228Z" />
<glyph unicode="&#x201a;" glyph-name="quotesinglbase" horiz-adv-x="551" d="M479 28Q479 -33 458 -93T401 -208T320 -307T226 -384L153 -329Q188 -281 212 -218T237 -82Q237 -23 197 12T84 50L68 135Q74 143 95 155T146 179T210 204T275 226T332 241T369 245Q426
204 452 151T479 28Z" />
<glyph unicode="&#x201c;" glyph-name="quotedblleft" horiz-adv-x="1051" d="M483 931Q477 923 456 911T405 887T341 862T276 840T219 825T182 821Q125 862 99 915T72 1038Q72 1099 93 1159T150 1274T231 1373T325 1450L398 1395Q363 1347 339 1284T314 1148Q314
1089 354 1054T467 1016L483 931ZM983 931Q977 923 956 911T905 887T841 862T776 840T719 825T682 821Q625 862 599 915T572 1038Q572 1099 593 1159T650 1274T731 1373T825 1450L898 1395Q863 1347 839 1284T814 1148Q814 1089 854 1054T967 1016L983 931Z" />
<glyph unicode="&#x201d;" glyph-name="quotedblright" horiz-adv-x="1053" d="M479 1228Q479 1167 458 1107T401 992T320 893T226 816L153 871Q188 919 212 982T237 1118Q237 1177 197 1212T84 1250L68 1335Q74 1343 95 1355T146 1379T210 1404T275 1426T332
1441T369 1445Q426 1404 452 1351T479 1228ZM979 1228Q979 1167 958 1107T901 992T820 893T726 816L653 871Q688 919 712 982T737 1118Q737 1177 697 1212T584 1250L568 1335Q574 1343 595 1355T646 1379T710 1404T775 1426T832 1441T869 1445Q926 1404 952 1351T979
1228Z" />
<glyph unicode="&#x201e;" glyph-name="quotedblbase" horiz-adv-x="1053" d="M479 28Q479 -33 458 -93T401 -208T320 -307T226 -384L153 -329Q188 -281 212 -218T237 -82Q237 -23 197 12T84 50L68 135Q74 143 95 155T146 179T210 204T275 226T332 241T369 245Q426
204 452 151T479 28ZM979 28Q979 -33 958 -93T901 -208T820 -307T726 -384L653 -329Q688 -281 712 -218T737 -82Q737 -23 697 12T584 50L568 135Q574 143 595 155T646 179T710 204T775 226T832 241T869 245Q926 204 952 151T979 28Z" />
<glyph unicode="&#x2022;" glyph-name="bullet" horiz-adv-x="569" d="M498 662Q498 601 481 551T432 465T357 409T260 389Q212 389 177 405T118 452T82 523T70 612Q70 672 88 722T139 808T214 865T309 885Q354 885 389 869T449 823T485 752T498 662Z" />
<glyph unicode="&#x2039;" glyph-name="guilsinglleft" horiz-adv-x="654" d="M471 -3L60 430V465Q60 479 60 490T62 503L471 933L533 883L525 865Q517 847 504 818T473 751T437 674T402 598T372 531T350 485T343 467L534 47L471 -3Z" />
<glyph unicode="&#x203a;" glyph-name="guilsinglright" horiz-adv-x="654" d="M592 427L183 -3L121 47L311 463L120 883L183 933L594 500L592 427Z" />
</font>
</defs>
</svg>
